XXX Uncensored Season 1 AltBalaji Full Length All Complete Episodes Free Download In 720p WEBRip + 1080p HDRip Quality Encoded In x264 MKV.

XXX Uncensored Season 1 AltBalaji Free Download All Episodes In 720p + 1080p

Details Of Full Length Free Videos

Title: X.X.X Uncensored (Mini Web Series)
Genres: Drama
Country: India
Language: Hindi
Release Date: 27 September 2018
Quality: 720p WEBRip | 1080p HDRip
Format: MKV
Size: 1.2-GB | 2.1-GB

IMDb | Altbalaji

Storyline

XXX Uncensored AltBalaji Web Series Free Download Complete Episodes In HD+ Quality It’s sexy. It’s racy. It’s India’s hottest original show. Watch on ALTBalaji.

ALTBalaji’s Youth Erotica X.X.X has come up with an innovative approach and plans to release midnight tidbits every once in a while. The midnight tidbits are special videos from AltBalaji’s XXX which will have glimpses of the steamy bold sequences from the show. Considering it’s a youth based and uncensored show, these videos will be released at midnight XXX Uncensored Web Series Free Download.
At the trailer launch of the series, when asked about the project, Rithvik had told Indian Express, “Yes, it’s true that there has been a change in perspective for me as a person. But as an actor, I still believe in the project as much as I did three years back. I am really happy that it’s finally seeing the light of day. We have all stepped out of our comfort zone and really worked hard for it. And we are all proud to see it finally getting launched XXX Uncensored 720p Episodes and 1080p Episodes Download.”

XXX Uncensored Season 1 720p WEB-RIP x264 AC3 2.0 - Video Details

XXX Uncensored Season 1 720p WEB-RIP x264 AC3 2.0 - Video Details

General
Format : Matroska
Format version : Version 4 / Version 2
File size : 286 MiB
Duration : 24 min 2 s
Overall bit rate : 1 665 kb/s
Movie name : XXX Uncensored

Video
ID : 1
Format : AVC
Format/Info : Advanced Video Codec
Duration : 24 min 2 s
Bit rate : 1 500 kb/s
Width : 1 280 pixels
Height : 550 pixels
Display aspect ratio : 2.35:1
Original display aspect ratio : 2.35:1
Frame rate mode : Constant
Frame rate : 23.900 FPS
Color space : YUV
Chroma subsampling : 4:2:0
Bit depth : 8 bits
Scan type : Progressive
Bits/(Pixel*Frame) : 0.089
Stream size : 253 MiB (88%)
Title : XXX Uncensored ~Ranvijay~

Audio
ID : 2
Format : AC-3
Format/Info : Audio Coding 3
Codec ID : A_AC3
Duration : 24 min 2 s
Bit rate mode : Constant
Bit rate : 192 kb/s
Channel(s) : 2 channels
Channel positions : Front: L R
Sampling rate : 48.0 kHz
Frame rate : 31.250 FPS (1536 SPF)
Bit depth : 16 bits
Compression mode : Lossy
Delay relative to video : -42 ms
Stream size : 33.0 MiB (12%)
Title : ~Ranvijay~
Language : Hindi
Service kind : Complete Main
Default : Yes
Forced : No

XXX Uncensored Season 1 1080p HQ HDRip x264 AAC - Video Details

XXX Uncensored Season 1 1080p HQ HDRip x264 AAC - Video Details

General
Unique ID : 19622417688593369339868644275388839739 (0xEC323E2E31E0758D79456A9FDC6773B)
Complete name : www.MovCr.cc – XXX Uncensored 20+ Adult S01 Complete v2 1080p HQ HDRip x264 AAC 1.9GB [MovCr].mkv
Format : Matroska
Format version : Version 4 / Version 2
File size : 1.94 GiB
Duration : 1 h 46 min
Overall bit rate : 2 601 kb/s
Movie name : www.MovCr.cc
Encoded date : UTC 2018-09-27 16:39:04
Writing application : mkvmerge v26.0.0 (‘In The Game’) 64-bit
Writing library : libebml v1.3.6 + libmatroska v1.4.9

Video
ID : 1
Format : AVC
Format/Info : Advanced Video Codec
Format profile : [email protected]
Format settings : CABAC / 4 Ref Frames
Format settings, CABAC : Yes
Format settings, RefFrames : 4 frames
Codec ID : V_MPEG4/ISO/AVC
Duration : 1 h 46 min
Bit rate : 2 486 kb/s
Width : 1 920 pixels
Height : 816 pixels
Display aspect ratio : 2.35:1
Frame rate mode : Constant
Frame rate : 23.976 (23976/1000) FPS
Color space : YUV
Chroma subsampling : 4:2:0
Bit depth : 8 bits
Scan type : Progressive
Bits/(Pixel*Frame) : 0.066
Stream size : 1.85 GiB (95%)
Title : www.MovCr.cc
Writing library : x264 core 155 r2901 7d0ff22
Encoding settings : cabac=1 / ref=1 / deblock=1:0:0 / analyse=0x3:0x113 / me=hex / subme=2 / psy=1 / psy_rd=1.00:0.00 / mixed_ref=0 / me_range=16 / chroma_me=1 / trellis=0 / 8x8dct=1 / cqm=0 / deadzone=21,11 / fast_pskip=1 / chroma_qp_offset=0 / threads=12 / lookahead_threads=4 / sliced_threads=0 / nr=0 / decimate=1 / interlaced=0 / bluray_compat=0 / constrained_intra=0 / bframes=3 / b_pyramid=2 / b_adapt=1 / b_bias=0 / direct=1 / weightb=1 / open_gop=0 / weightp=1 / keyint=240 / keyint_min=24 / scenecut=40 / intra_refresh=0 / rc_lookahead=10 / rc=abr / mbtree=1 / bitrate=2486 / ratetol=1.0 / qcomp=0.60 / qpmin=0 / qpmax=69 / qpstep=4 / vbv_maxrate=62500 / vbv_bufsize=78125 / nal_hrd=none / filler=0 / ip_ratio=1.40 / aq=1:1.00
Default : Yes
Forced : No
Color range : Limited
Color primaries : BT.709
Transfer characteristics : BT.709
Matrix coefficients : BT.709

Audio
ID : 2
Format : AAC
Format/Info : Advanced Audio Codec
Format profile : LC
Codec ID : A_AAC-2
Duration : 1 h 46 min
Bit rate : 127 kb/s
Channel(s) : 2 channels
Channel positions : Front: L R
Sampling rate : 48.0 kHz
Frame rate : 46.875 FPS (1024 SPF)
Compression mode : Lossy
Delay relative to video : -21 ms
Stream size : 97.2 MiB (5%)
Title : www.MovCr.cc
Language : Hindi
Default : Yes
Forced : No

Images, Screenshots Of Full Episodes

Some Images Of XXX Uncensored 720p + 1080p Episodes

XXX Uncensored Season 1 AltBalaji Free Download All Episodes In 720p + 1080p

XXX Uncensored Season 1 AltBalaji Free Download All Episodes In 720p + 1080p

XXX Uncensored Season 1 AltBalaji Free Download All Episodes In 720p + 1080p

XXX Uncensored Season 1 AltBalaji Free Download All Episodes In 720p + 1080p

XXX Uncensored Season 1 AltBalaji Free Download All Episodes In 720p + 1080p

XXX Uncensored Season 1 AltBalaji Free Download All Episodes In 720p + 1080p

XXX Uncensored Season 1 AltBalaji Free Download All Episodes In 720p + 1080p

XXX Uncensored Season 1 AltBalaji Free Download All Episodes In 720p + 1080p

Watch The Full HD 720p, 1080p Movie Trailers

Watch XXX Uncensored AltBalaji Official Trailer

Direct Download Links Of XXX Uncensored Season 1 All Episodes 720p + 1080p Given Below

Free Download Direct Links HD

Direct Links For Premium Users

If you are the member of this site then enter your login details and Enjoy Direct Links

Leave a Reply

Your email address will not be published. Required fields are marked *

Check Also

B.Tech Season 1 In Hindi – Complete

B Tech Web Series Full Hindi Episodes From Season 1 Free Download In 720p HDRip Quality En…