Venom 2018 Hindi Dubbed Movie Download Dual Audio In 720p HD + 1080p Full HD WEBRip Quality Encoded In x264 With English Subtitles.

Venom 2018 Hindi Dubbed Movie Download 720p, 1080p WEBRip Dual Audio Subtitles

Details Of Full Length Free Videos

Title: Venom 2018
Genres: Action | Horror | Sci-Fi | Thriller
Country: USA
Language: Hindi | English
Release Date: 5 October 2018 (USA)
Quality: 720p + 1080p -> WEBRip x264
Subtitles: English
Format: MKV
Size: 936-MB | 1.9-GB

IMDb

Storyline

Venom Hindi Dubbed 720p + 1080p Full Movie Download When Eddie Brock acquires the powers of a symbiote, he will have to release his alter-ego “Venom” to save his life.

Download Dual Audio 1080p Full HD Movie With English Subtitles While exploring space for new habitable worlds, a probe belonging to the Life Foundation, a bio-engineering corporation, discovers a comet covered in symbiotic lifeforms. They bring four samples back to Earth, but one escapes and causes the ship to crash in Malaysia. Venom 720p Hindi Dubbed WEBRip Movie The Life Foundation recovers the other three and transports them to their research facility in San Francisco, where CEO Carlton Drake learns that the symbiotes cannot survive without oxygen-breathing hosts, which often fatally reject the symbiosis. Investigative journalist Eddie Brock reads about Drake’s human trials in a classified document in the possession of his fiancée Anne Weying, an attorney involved in preparing a lawsuit defense for the Life Foundation. Brock confronts Drake, leading to both Brock and Weying losing their jobs. Consequently, Weying ends their relationship Venom 1080p Hindi Movie Download With Subtitles.

Six months later, Drake is getting closer to achieving successful symbiosis. Venom 1080p Movie Subtitles Brock is approached by Dora Skirth, one of Drake’s scientists who disagrees with his methods and wants to help Brock expose him. She helps Brock break into the research facility to search for evidence, and he learns that an acquaintance of his, a homeless woman named Maria, has become one of Drake’s test subjects. Brock attempts to rescue Maria, but she attacks him and the symbiote possessing her transfers from her body to his, leaving her dead. Brock escapes, but he soon begins displaying strange symptoms and reaches out to Weying for help. Her new boyfriend, Dr. Dan Lewis, examines Brock and discovers the symbiote. Meanwhile, Drake executes Skirth for her betrayal by exposing her to the remaining captive symbiote, which ultimately dies. This leaves the symbiote inside Brock as the only known surviving specimen.

About Venom 2018 Film:

Venom 1080p Full Movie Download In Hindi is a 2018 American superhero film based on the Marvel Comics character of the same name, produced by Columbia Pictures in association with Marvel and Tencent Pictures. Distributed by Sony Pictures Releasing, it is the first film in Sony’s Marvel Universe, adjunct to the Marvel Cinematic Universe (MCU).[a] Directed by Ruben Fleischer from a screenplay by Scott Rosenberg, Jeff Pinkner, and Kelly Marcel, it stars Tom Hardy as Eddie Brock / Venom, alongside Michelle Williams, Riz Ahmed, Scott Haze, and Reid Scott. In Venom, journalist Brock gains superpowers after being bound to an alien symbiote whose species plans to invade Earth Venom 720p Full Movie WEBRip x264.

Sony began developing a Venom film after the character made his cinematic debut in Spider-Man 3 (2007). After various iterations, work on a new version began in March 2017, with the intention of starting a new shared universe featuring those Marvel characters to which Sony possessed film rights; Sony also intended for the film to share the world of Spider-Man: Homecoming, which is set in the MCU after a deal between Sony and Marvel Studios. Rosenberg and Pinkner were set to write, with Fleischer and Hardy added in May 2017. Principal photography began in October 2017, in Atlanta, New York City, and San Francisco.

Venom premiered in Los Angeles on October 1, 2018, and was theatrically released in the United States on October 5, 2018. The film received generally negative reviews from critics for its script and inconsistent tone, although some praised Hardy’s performance. Despite this, the film became a box office success, grossing $844 million worldwide, becoming the fifth highest-grossing film of 2018 and setting several box office records for the month of October.

Venom Hindi Movie Full Main Cast

  • Tom Hardy
  • Michelle Williams
  • Riz Ahmed
  • Scott Haze
  • Reid Scott
  • Jenny Slate
  • Melora Walters
  • Woody Harrelson
  • Peggy Lu
  • Malcolm C. Murray
  • Sope Aluko
  • Wayne Pére
  • Michelle Lee
  • Kurt Yue
  • Chris O’Hara

Venom 2018 Dual Audio Hindi + English WEBRip x264 + ESubs - 720p HD Details

Venom 2018 Dual Audio Hindi + English WEBRip x264 + ESubs - 720p HD Details

General
Format : Matroska
Format version : Version 4 / Version 2
File size : 937 MiB
Duration : 1 h 47 min
Overall bit rate : 1 223 kb/s

Video
ID : 1
Format : AVC
Format/Info : Advanced Video Codec
Format profile : [email protected]
Format settings : CABAC / 4 Ref Frames
Format settings, CABAC : Yes
Format settings, RefFrames : 4 frames
Codec ID : V_MPEG4/ISO/AVC
Duration : 1 h 47 min
Bit rate : 1 000 kb/s
Width : 1 280 pixels
Height : 532 pixels
Display aspect ratio : 2.40:1
Frame rate mode : Constant
Frame rate : 23.976 (24000/1001) FPS
Color space : YUV
Chroma subsampling : 4:2:0
Bit depth : 8 bits
Scan type : Progressive
Bits/(Pixel*Frame) : 0.061
Stream size : 738 MiB (79%)
Writing library : x264 core 155 r2901 7d0ff22
Default : Yes
Forced : No

Audio #1
ID : 2
Format : AAC
Format/Info : Advanced Audio Codec
Format profile : LC
Codec ID : A_AAC-2
Duration : 1 h 47 min
Bit rate : 128 kb/s
Channel(s) : 2 channels
Channel positions : Front: L R
Sampling rate : 48.0 kHz
Frame rate : 46.875 FPS (1024 SPF)
Compression mode : Lossy
Stream size : 98.1 MiB (10%)
Language : Hindi
Default : Yes
Forced : No

Audio #2
ID : 3
Format : AAC
Format/Info : Advanced Audio Codec
Format profile : LC
Codec ID : A_AAC-2
Duration : 1 h 47 min
Bit rate : 129 kb/s
Channel(s) : 2 channels
Channel positions : Front: L R
Sampling rate : 48.0 kHz
Frame rate : 46.875 FPS (1024 SPF)
Compression mode : Lossy
Stream size : 98.5 MiB (11%)
Language : English
Default : No
Forced : No

Text
ID : 4
Format : UTF-8
Codec ID : S_TEXT/UTF8
Codec ID/Info : UTF-8 Plain Text
Duration : 1 h 35 min
Bit rate : 81 b/s
Count of elements : 1783
Stream size : 57.2 KiB (0%)
Default : Yes
Forced : No

Venom 2018 Dual Audio Hindi + English WEBRip x264 + ESubs - 1080p HD Details

Venom 2018 Dual Audio Hindi + English WEBRip x264 + ESubs - 1080p HD Details

General
Format : Matroska
Format version : Version 4 / Version 2
File size : 1.86 GiB
Duration : 1 h 47 min
Overall bit rate : 2 484 kb/s

Video
ID : 1
Format : AVC
Format/Info : Advanced Video Codec
Format profile : [email protected]
Format settings : CABAC / 4 Ref Frames
Format settings, CABAC : Yes
Format settings, RefFrames : 4 frames
Codec ID : V_MPEG4/ISO/AVC
Duration : 1 h 47 min
Bit rate : 2 200 kb/s
Width : 1 920 pixels
Height : 800 pixels
Display aspect ratio : 2.40:1
Frame rate mode : Constant
Frame rate : 23.976 (24000/1001) FPS
Color space : YUV
Chroma subsampling : 4:2:0
Bit depth : 8 bits
Scan type : Progressive
Bits/(Pixel*Frame) : 0.060
Stream size : 1.57 GiB (84%)
Writing library : x264 core 155 r2901 7d0ff22
Default : Yes
Forced : No

Audio #1
ID : 2
Format : AAC
Format/Info : Advanced Audio Codec
Format profile : LC
Codec ID : A_AAC-2
Duration : 1 h 47 min
Bit rate : 128 kb/s
Channel(s) : 2 channels
Channel positions : Front: L R
Sampling rate : 48.0 kHz
Frame rate : 46.875 FPS (1024 SPF)
Compression mode : Lossy
Stream size : 98.1 MiB (5%)
Language : Hindi
Default : Yes
Forced : No

Audio #2
ID : 3
Format : AAC
Format/Info : Advanced Audio Codec
Format profile : LC
Codec ID : A_AAC-2
Duration : 1 h 47 min
Bit rate : 256 kb/s
Channel(s) : 2 channels
Channel positions : Front: L R
Sampling rate : 48.0 kHz
Frame rate : 46.875 FPS (1024 SPF)
Compression mode : Lossy
Stream size : 197 MiB (10%)
Language : English
Default : No
Forced : No

Text
ID : 4
Format : UTF-8
Codec ID : S_TEXT/UTF8
Codec ID/Info : UTF-8 Plain Text
Duration : 1 h 34 min
Bit rate : 82 b/s
Count of elements : 1781
Stream size : 57.2 KiB (0%)
Default : Yes
Forced : No

Images, Screenshots Of Full Episodes

Some Images Of Venom 2018 Dual Audio Hindi + English 720p/1080p Full HD Movie WEBRip

Venom 2018 Hindi Dubbed Movie Download 720p, 1080p WEBRip Dual Audio Subtitles

Venom 2018 Hindi Dubbed Movie Download 720p, 1080p WEBRip Dual Audio Subtitles

Venom 2018 Hindi Dubbed Movie Download 720p, 1080p WEBRip Dual Audio Subtitles

Venom 2018 Hindi Dubbed Movie Download 720p, 1080p WEBRip Dual Audio Subtitles

Venom 2018 Hindi Dubbed Movie Download 720p, 1080p WEBRip Dual Audio Subtitles

Venom 2018 Hindi Dubbed Movie Download 720p, 1080p WEBRip Dual Audio Subtitles

Venom 2018 Hindi Dubbed Movie Download 720p, 1080p WEBRip Dual Audio Subtitles

Watch The Full HD 720p, 1080p Movie Trailers

Watch Venom 2018 Full Movie Trailer

Direct Download Links Of Venom 2018 Hindi Dubbed Full Movie In 720p + 1080p Given Below

Free Download Direct Links HD

Direct Links For Premium Users

If you are the member of this site then enter your login details and Enjoy Direct Links

Leave a Reply

Your email address will not be published. Required fields are marked *

Check Also

Bucket List (2018) Marathi 720p HDRip x264 AAC – 1.1 GB

Bucket List 2018 Full Marathi Movie Free Download In 720p HDRip QUality Encoded In x264 MK…