Venom 2018 Dual Audio Hindi+ English Movie Download In 1080p HDTS Quality Encoded In x264.

Venom 1080p Full Movie Download Free Full Length Direct Links HDTS

Details Of Full Length Free Videos

Title: Venom 2018 In 1080p
Genres: Action | Horror | Sci-Fi | Thriller
Country: USA
Language: Hindi
Release Date: 5 October 2018 (USA)
Quality: 1080p HD-TS
Format: MKV
Size: 2.1-MB

IMDb

Storyline

When Eddie Brock acquires the powers of a symbiote, he will have to release his alter-ego “Venom” to save his life.

Video File Details

Video File Details

General
Format : Matroska
Format version : Version 4 / Version 2
File size : 2.10 GiB
Duration : 1 h 32 min
Overall bit rate mode : Variable
Overall bit rate : 3 269 kb/s

Video
ID : 1
Format : AVC
Format/Info : Advanced Video Codec
Format profile : [email protected]
Format settings : CABAC / 6 Ref Frames
Format settings, CABAC : Yes
Format settings, RefFrames : 6 frames
Codec ID : V_MPEG4/ISO/AVC
Duration : 1 h 32 min
Bit rate mode : Variable
Bit rate : 3 000 kb/s
Maximum bit rate : 62.5 Mb/s
Width : 1 632 pixels
Height : 704 pixels
Display aspect ratio : 2.35:1
Frame rate mode : Constant
Frame rate : 30.000 FPS
Color space : YUV
Chroma subsampling : 4:2:0
Bit depth : 8 bits
Scan type : Progressive
Bits/(Pixel*Frame) : 0.087
Stream size : 1.94 GiB (92%)
Writing library : x264 core 148 r2638 7599210
Default : Yes
Forced : No
Color range : Full

Audio #1
ID : 2
Format : AAC
Format/Info : Advanced Audio Codec
Format profile : LC
Codec ID : A_AAC-2
Duration : 1 h 32 min
Bit rate : 128 kb/s
Channel(s) : 2 channels
Channel positions : Front: L R
Sampling rate : 48.0 kHz
Frame rate : 46.875 FPS (1024 SPF)
Compression mode : Lossy
Stream size : 84.3 MiB (4%)
Language : Hindi
Default : Yes
Forced : No

Audio #2
ID : 3
Format : AAC
Format/Info : Advanced Audio Codec
Format profile : LC
Codec ID : A_AAC-2
Duration : 1 h 32 min
Bit rate : 128 kb/s
Channel(s) : 2 channels
Channel positions : Front: L R
Sampling rate : 48.0 kHz
Frame rate : 46.875 FPS (1024 SPF)
Compression mode : Lossy
Stream size : 84.3 MiB (4%)
Language : English
Default : No
Forced : No

Images, Screenshots Of Full Episodes

Some Images Of Venom 1080p Movie

Venom 1080p Full Movie Download Free Full Length Direct Links HDTS

Venom 1080p Full Movie Download Free Full Length Direct Links HDTS

Venom 1080p Full Movie Download Free Full Length Direct Links HDTS

Venom 1080p Full Movie Download Free Full Length Direct Links HDTS

Venom 1080p Full Movie Download Free Full Length Direct Links HDTS

Venom 1080p Full Movie Download Free Full Length Direct Links HDTS

Venom 1080p Full Movie Download Free Full Length Direct Links HDTS

Watch The Full HD 720p, 1080p Movie Trailers

Watch Venom 2018 Full Movie Trailer

Download Best Quality Print Instead Of This – From Below

Free Download Direct Links HD

Leave a Reply

Your email address will not be published. Required fields are marked *

Check Also

Bucket List (2018) Marathi 720p HDRip x264 AAC – 1.1 GB

Bucket List 2018 Full Marathi Movie Free Download In 720p HDRip QUality Encoded In x264 MK…