Skyscraper 2018 Hindi Dubbed Free Download Full Movie In 720p HDRip Encoded In x264 Dual Audio.

Skyscraper Hindi Dubbed Full Movie Free Download 720p Dual Audio HD

Details Of Full Length Free Videos

Title: Skyscraper 2018 Hindi Dubbed
Genres: Action | Thriller
Country: USA
Language: Hindi | English
Release Date: 13 July 2018
Quality: 720p x264 HC HDRip
Format: MKV
Size: 783-MB

IMDb

Storyline

Skyscraper Full Movie Hindi Dubbed Free Download 720p FBI Hostage Rescue Team leader and U.S. war veteran Will Sawyer now assesses security for skyscrapers. On assignment in Hong Kong he finds the tallest, safest building in the world suddenly ablaze and he’s been framed for it. A wanted man on the run, Will must find those responsible, clear his name and somehow rescue his family who are trapped inside the building – above the fire line. Full Dual Audio Hindi + English 720p HD Movie 2018.

About This Movie

Download Skyscraper is a 2018 American action film written and directed by Rawson Marshall Thurber, and starring Dwayne Johnson, Neve Campbell, Chin Han, Roland Møller, Noah Taylor, Byron Mann, Pablo Schreiber and Hannah Quinlivan. The story follows a former FBI agent who must rescue his family from a newly built skyscraper, the tallest in the world, after it is taken over by criminals and set on fire. The first non-comedy of Thurber’s career, it also marks his second collaboration with Johnson, following Central Intelligence (2016).

Filming began in September 2017 in Vancouver, British Columbia, Canada. The film was released in the United States by Universal Pictures on July 13, 2018, in 2D and Real D 3D, and has grossed over $280 million worldwide against its production budget of around $125 million. Download Skyscraper Dual Audio Hindi + English 720p HD The film received mixed reviews from critics, who praised Johnson’s performance and the film’s suspenseful scenes, but criticized the script as clichéd and too similar to The Towering Inferno and Die Hard.

Cast Of Skyscraper 2018 Movie

  • Dwayne Johnson as Will Sawyer, a former FBI Hostage Rescue Team leader and amputee, who now assesses security for skyscrapers.
  • Neve Campbell as Sarah Sawyer, Will’s wife
  • Chin Han as Zhao Long Ji, a wealthy Chinese tech entrepreneur and financier of the Pearl
  • Roland Møller as Kores Botha, a Scandinavian terrorist kingpin
  • Noah Taylor as Mr. Pierce, one of Botha’s mercenaries, impersonating an insurance agent
  • Byron Mann as Inspector Wu, leader of the HKPF response team
  • Pablo Schreiber as Ben Gillespie, Will’s former colleague and friend, now secretly working for Botha
  • Hannah Quinlivan as Xia
  • Matt O’Leary as Skinny Hacker
  • McKenna Roberts as Georgia Sawyer, Will’s daughter
  • Noah Cottrell as Henry Sawyer, Will’s son
  • Kevin Rankin as Ray
  • Adrian Holmes as Ajani Okeke, Zhao’s head-of-security and personal bodyguard
  • Tzi Ma as Fire Chief Shen

Video File Details

Video File Details

General

Format : Matroska
Format version : Version 4 / Version 2
File size : 782 MiB
Duration : 1 h 42 min
Overall bit rate mode : Variable
Overall bit rate : 1 068 kb/s
Movie name : www.MoviezAddiction.website
Encoded date : UTC 2018-08-10 13:13:45
Writing application : mkvmerge v12.0.0 (‘Trust / Lust’) 64bit
Writing library : libebml v1.3.4 + libmatroska v1.4.5

Video
ID : 1
Format : AVC
Format/Info : Advanced Video Codec
Format profile : [email protected]
Format settings : CABAC / 4 Ref Frames
Format settings, CABAC : Yes
Format settings, ReFrames : 4 frames
Codec ID : V_MPEG4/ISO/AVC
Duration : 1 h 42 min
Bit rate : 892 kb/s
Width : 1 280 pixels
Height : 536 pixels
Display aspect ratio : 2.40:1
Frame rate mode : Constant
Frame rate : 30.000 FPS
Color space : YUV
Chroma subsampling : 4:2:0
Bit depth : 8 bits
Scan type : Progressive
Bits/(Pixel*Frame) : 0.043
Stream size : 653 MiB (84%)
Title : www.MoviezAddiction.website
Writing library : x264 core 155 r2901 7d0ff22
Language : English
Default : Yes
Forced : No

Audio #1
ID : 2
Format : MPEG Audio
Format version : Version 2
Format profile : Layer 3
Format settings : Joint stereo / MS Stereo
Codec ID : A_MPEG/L3
Codec ID/Hint : MP3
Duration : 1 h 42 min
Bit rate mode : Variable
Bit rate : 86.1 kb/s
Nominal bit rate : 96.0 kb/s
Channel(s) : 2 channels
Sampling rate : 16.0 kHz
Frame rate : 27.778 FPS (576 SPF)
Compression mode : Lossy
Stream size : 63.1 MiB (8%)
Title : www.MoviezAddiction.website
Writing library : LAME3.99r
Encoding settings : -m j -V 4 -q 3 -lowpass 8 –abr 96
Language : Hindi
Default : Yes
Forced : No

Audio #2
ID : 3
Format : MPEG Audio
Format version : Version 2
Format profile : Layer 3
Format settings : Joint stereo / MS Stereo
Codec ID : A_MPEG/L3
Codec ID/Hint : MP3
Duration : 1 h 42 min
Bit rate mode : Variable
Bit rate : 87.0 kb/s
Nominal bit rate : 96.0 kb/s
Channel(s) : 2 channels
Sampling rate : 16.0 kHz
Frame rate : 27.778 FPS (576 SPF)
Compression mode : Lossy
Stream size : 63.8 MiB (8%)
Title : www.MoviezAddiction.website
Writing library : LAME3.99r
Encoding settings : -m j -V 4 -q 3 -lowpass 8 –abr 96
Language : English
Default : No
Forced : No

Images, Screenshots Of Full Episodes

Some Images Of Skyscraper Hindi Dubbed 720p HDRip

Skyscraper Hindi Dubbed Full Movie Free Download 720p Dual Audio HD

Skyscraper Hindi Dubbed Full Movie Free Download 720p Dual Audio HD

Skyscraper Hindi Dubbed Full Movie Free Download 720p Dual Audio HD

Skyscraper Hindi Dubbed Full Movie Free Download 720p Dual Audio HD

Skyscraper Hindi Dubbed Full Movie Free Download 720p Dual Audio HD

Watch The Full HD 720p, 1080p Movie Trailers

Watch Skyscraper 2018 Full Movie Trailer

Direct Download Links Of Skyscraper Hindi Dubbed Full Movie 720p HDRip Given Below

Free Download Direct Links HD

Leave a Reply

Your email address will not be published. Required fields are marked *

Check Also

The Flash Season 5 – Episode 10 Added

The Flash Season 5 All Episodes Download In English 480p + 720p + 1080p Full HD Quality En…