Savita Damodar Paranjpe 2018 Marathi Full Movie Free Download In PreDVDRip Quality Encoded In x264.

Savita Damodar Paranjpe 2018 Full Movie Download Marathi PreDVDRip

Details Of Full Length Free Videos

Title: Savita Damodar Paranjpe 2018
Genres: Thriller
Country: India
Language: Marathi
Release Date: 7 September 2018
Quality: PreDVDRip x264
Format: MKV
Size: 700-MB

IMDb

Storyline Of Savita Damodar Paranjpe Film:

Savita Damodar Paranjpe Full Movie Free Download The story is set in the 1980’s Mumbai. It’s about a couple- Sharad and Kussum Abhyankar. Sharad is a well-known writer and Kussum an architect. Their love is unparalleled. However, their marriage is marred by one niggling problem- that’s Kussum health.

About

John Abraham’s first Marathi productions venture, ‘Savita Damodar Paranjpe’ is based on popular Marathi play of the same name. The filmmaker Swapna Waghmare Joshi’s unfolding the story of a woman seeking revenge from the guy who ditched her. Savita Damodar Paranjpe 2018 PreDVDRip x264 Download The film stars Subhodh Bhave, Rakesh Bapat, Pallavi Patil, and Anga Mhaskar in prominent roles. As the film is all set to hit the theatres on August 31, we give you rundown of reasons to watch the gripping thriller.

Savita Damodar Paranjpe Movie Main Cast

  • Subodh Bhave
  • Trupti Toradmal
  • Raqesh Vashisth
  • Pallavi Patil
  • Savita Prabhune
  • Angad Mhaskar

Video File Details

Video File Details

Video
ID : 1
Format : AVC
Format/Info : Advanced Video Codec
Format profile : [email protected]
Format settings : CABAC / 4 Ref Frames
Format settings, CABAC : Yes
Format settings, RefFrames : 4 frames
Codec ID : V_MPEG4/ISO/AVC
Duration : 1 h 55 min
Bit rate : 694 kb/s
Width : 688 pixels
Height : 272 pixels
Display aspect ratio : 2.529
Frame rate mode : Constant
Frame rate : 25.000 FPS
Color space : YUV
Chroma subsampling : 4:2:0
Bit depth : 8 bits
Scan type : Progressive
Bits/(Pixel*Frame) : 0.148
Stream size : 575 MiB (82%)
Writing library : x264 core 155 r2901 7d0ff22
Encoding settings : Savita Damodar Paranjpe Full Marathi Movie Download cabac=1 / ref=3 / deblock=1:0:0 / analyse=0x3:0x113 / me=hex / subme=7 / psy=1 / psy_rd=1.00:0.00 / mixed_ref=1 / me_range=16 / chroma_me=1 / trellis=1 / 8x8dct=1 / cqm=0 / deadzone=21,11 / fast_pskip=1 / chroma_qp_offset=-2 / threads=8 / lookahead_threads=1 / sliced_threads=0 / nr=0 / decimate=1 / interlaced=0 / bluray_compat=0 / constrained_intra=0 / bframes=3 / b_pyramid=2 / b_adapt=1 / b_bias=0 / direct=1 / weightb=1 / open_gop=0 / weightp=2 / keyint=250 / keyint_min=25 / scenecut=40 / intra_refresh=0 / rc_lookahead=40 / rc=2pass / mbtree=1 / bitrate=694 / ratetol=1.0 / qcomp=0.60 / qpmin=0 / qpmax=69 / qpstep=4 / cplxblur=20.0 / qblur=0.5 / ip_ratio=1.40 / aq=1:1.00
Default : Yes
Forced : No

Audio
ID : 2
Format : AAC LC
Format/Info : Advanced Audio Codec Low Complexity
Codec ID : A_AAC-2
Duration : 1 h 55 min
Bit rate : 144 kb/s
Channel(s) : 2 channels
Channel layout : L R
Sampling rate : 48.0 kHz
Frame rate : 46.875 FPS (1024 SPF)
Compression mode : Lossy
Stream size : 121 MiB (17%)
Default : Yes
Forced : No

Images, Screenshots Of Full Episodes

Some Images Of Savita Damodar Paranjpe 2018 PreDVDRip x264 Movie

Savita Damodar Paranjpe 2018 Full Movie Download Marathi PreDVDRip

Savita Damodar Paranjpe 2018 Full Movie Download Marathi PreDVDRip

Savita Damodar Paranjpe 2018 Full Movie Download Marathi PreDVDRip

Watch The Full HD 720p, 1080p Movie Trailers

Watch Savita Damodar Paranjpe 2018 Marathi Movie Trailer

Direct Download Links Of Savita Damodar Paranjpe 2018 Full Movie In PreDVDRip Given Below

Free Download Direct Links HD

Direct Links For Premium Users

If you are the member of this site then enter your login details and Enjoy Direct Links

Leave a Reply

Your email address will not be published. Required fields are marked *

Check Also

Fabricated City (2017) 720p BluRay Dual Audio [Hindi + Korian] – 1 GB

Fabricated City 2017 Full Movie Download In Hindi 720p BluRay Quality Encoded In x264 MKV …