Saheb Biwi Aur Gangster 3 2018 720p

Details Of Full Length Free Videos

Title: Saheb Biwi Aur Gangster 3 (2018)
Genres: Action | Crime | Drama | Thriller
Country: India
Language: Hindi
Release Date: 27 July 2018
Quality: 720p HD x264
Format: MKV
Size: 767-MB

IMDb

Storyline

The royal saga of deceit, conspiracy, greed and lust continues in the third installment of the series, as the Saheb and Biwi are pitted against an enemy and everyone involved is scheming ruthlessly for their own personal gain.

Video File Details

Video File Details

Format : Matroska
Format version : Version 4
File size : 767 MiB
Duration : 2 h 14 min
Overall bit rate : 796 kb/s
Movie name : Saheb Biwi Aur Gangster 3 2018 GOPISAHI

Video
Format : AVC
Format/Info : Advanced Video Codec
Format profile : [email protected]
Codec ID : V_MPEG4/ISO/AVC
Duration : 2 h 14 min
Bit rate : 699 kb/s
Width : 1 280 pixels
Height : 540 pixels
Display aspect ratio : 2.40:1
Frame rate mode : Constant
Frame rate : 25.000 FPS
Color space : YUV
Chroma subsampling : 4:2:0
Bit depth : 8 bits
Scan type : Progressive
Bits/(Pixel*Frame) : 0.040
Stream size : 673 MiB (88%)
Title : GOPISAHI
Writing library : x264 core 155 r2901 7d0ff22

Audio
Format : AAC LC
Duration : 2 h 14 min
Bit rate : 96.0 kb/s
Channel(s) : 2 channels
Channel layout : L R
Sampling rate : 48.0 kHz
Frame rate : 46.875 FPS (1024 SPF)
Compression mode : Lossy
Delay relative to video : -21 ms
Stream size : 92.0 MiB (12%)
Title : GOPISAHI
Language : Hindi

Images, Screenshots Of Full Episodes

Some Images Of Saheb Biwi Aur Gangster 3 2018 720p

Saheb Biwi Aur Gangster 3 2018 720p

Saheb Biwi Aur Gangster 3 2018 720p

Saheb Biwi Aur Gangster 3 2018 720p

Watch The Full HD 720p, 1080p Movie Trailers

Watch Saheb Biwi Aur Gangster 3 2018 Trailer

Direct Download Links Of Saheb Biwi Aur Gangster 3 2018 720p Given Below

Free Download Direct Links HD

Direct Links For Premium Users

If you are the member of this site then enter your login details and Enjoy Direct Links

Leave a Reply

Your email address will not be published. Required fields are marked *

Check Also

Bucket List (2018) Marathi 720p HDRip x264 AAC – 1.1 GB

Bucket List 2018 Full Marathi Movie Free Download In 720p HDRip QUality Encoded In x264 MK…