Red 2 Full Movie Download In Hindi + English 720p BluRay HD Quality Encoded In x264 MKV With English Subtitles.

Red 2 Full Movie In Hindi 720p HD BluRay Download 2013

Details Of Full Length Free Videos

Title: Red 2 (2013)
Genres: Action | Comedy | Crime | Thriller
Country: USA | France | Canada
Language: Hindi | English
Release Date: 19 July 2013
Quality: 720p BluRay x264
Subtitle: English
Format: MKV
Size: 973-MB

IMDb

Storyline Of Red 2 Film:

Red 2 Full Movie In Hindi 720p BluRay HD Retired CIA agent Frank Moses is in love with Sarah Ross and enjoying their normal life. Out of the blue, Marvin Boggs meets Frank in the supermarket and tells that Wikileaks has released the information that they had participated and know the whereabouts of the Nightshade, a portable nuclear weapon that was smuggled in pieces and hidden in Russia. Now the top agents in the world are under contract to seek them out to discover where Nightshade is. Red 2 Movie Download The trio travels to Paris and teams-up with the Russian Katja to track down the former Russian Agent ‘The Frog’ to get more information about the operation. They learn that the brilliant inventor Dr. Edward Bailey might know where the weapon is. They discover that Bailey has Red 2 Full Movie Download been interned in an asylum in London by the MI-6 for thirty-two years and the British Victoria joins the team. They rescue Bailey and find that the nuclear device is hidden in the Kremlin. Soon the dangerous South Korean Han joins the group expecting to retrieve the …

Hindi Dubbed Red 2 is 2013 American action comedy film and sequel to the 2010 film Red. It was based on the limited comic book series of the same name, created by Warren Ellis and Cully Hamner, and published by the DC Comics imprint Homage. The film stars Bruce Willis, John Malkovich, Mary-Louise Parker, Catherine Zeta-Jones, Lee Byung-hun, Anthony Hopkins, and Helen Mirren, with Dean Parisot directing a screenplay by Jon and Erich Hoeber. Red 2 was released on July 19, 2013.

Red 2 Full Movie Cast:

  • Bruce Willis as Francis “Frank” Moses
  • John Malkovich as Marvin Boggs
  • Helen Mirren as Victoria Winslow
  • Mary-Louise Parker as Sarah Ross
  • Anthony Hopkins as Dr. Edward Bailey
  • Catherine Zeta-Jones as Major General Katja Petrokovich
  • Brian Cox as Ivan Simanov
  • Byung-hun Lee as Han Cho Bai, an assassin and former NIS agent
  • David Thewlis as The Frog
  • Neal McDonough as Jack Horton, a corrupt US intelligence agent
  • Garrick Hagon as Davis, a high ranking corrupt member of the US Intelligence Community
  • Tim Pigott-Smith as Philips, Chief of the Secret Intelligence Service
  • Philip Arditti as Arman, the Iranian Ambassador to the United Kingdom
  • Jong Kun Lee as Han’s father
  • Mitchell Mullen as Wade
  • Martin Sims as Blackwell
  • Tristan D. Lalla as Vance
  • Nathalie Buscombe as Serena
  • Emma Heming Willis as Kelly, Han’s assistant
  • Steven Berkoff as Cobb
  • Andrew Byron as Russian Lead Officer
  • Titus Welliver as Burgess, a Senior Director of Military Intelligence (uncredited)

MKV File Details

MKV File Details

General
Format : Matroska
Format version : Version 4 / Version 2
File size : 973 MiB
Duration : 1 h 55 min
Overall bit rate : 1 175 kb/s

Video
ID : 1
Format : AVC
Format/Info : Advanced Video Codec
Format profile : [email protected]
Format settings : CABAC / 4 Ref Frames
Format settings, CABAC : Yes
Format settings, RefFrames : 4 frames
Codec ID : V_MPEG4/ISO/AVC
Duration : 1 h 55 min
Bit rate : 950 kb/s Red 2 Movie Download In Hindi
Width : 1 280 pixels
Height : 536 pixels
Display aspect ratio : 2.40:1
Frame rate mode : Constant
Frame rate : 23.976 (24000/1001) FPS
Original frame rate : 23.976 (23976/1000) FPS
Color space : YUV
Chroma subsampling : 4:2:0
Bit depth : 8 bits
Scan type : Progressive
Bits/(Pixel*Frame) : 0.058
Stream size : 787 MiB (81%)
Writing library : x264 core 132 r2 76a5c3a
Default : Yes
Forced : No Red 2 Hindi Dubbed Movie Download

Audio #1
ID : 2
Format : AAC
Format/Info : Advanced Audio Codec
Format profile : LC
Codec ID : A_AAC-2
Duration : 1 h 55 min
Bit rate : 128 kb/s
Channel(s) : 2 channels
Channel positions : Front: L R
Sampling rate : 48.0 kHz
Frame rate : 46.875 FPS (1024 SPF) Red 2 English Subtitles
Compression mode : Lossy
Stream size : 106 MiB (11%)
Language : Hindi
Default : Yes
Forced : No

Audio #2
ID : 3
Format : AAC
Format/Info : Advanced Audio Codec
Format profile : LC
Codec ID : A_AAC-2
Duration : 1 h 55 min
Bit rate : 93.7 kb/s
Channel(s) : 2 channels
Channel positions : Front: L R
Sampling rate : 48.0 kHz
Frame rate : 46.875 FPS (1024 SPF)
Compression mode : Lossy
Stream size : 77.6 MiB (8%)
Language : English
Default : No
Forced : No

Text
ID : 4
Format : UTF-8
Codec ID : S_TEXT/UTF8
Codec ID/Info : UTF-8 Plain Text
Duration : 1 h 45 min
Bit rate : 53 b/s
Count of elements : 1381
Stream size : 41.3 KiB (0%)
Default : Yes
Forced : No

Images, Screenshots Of Full Episodes

Some Images Of Red 2 Hindi Dubbed 720p BluRay x264 Full Movie

Red 2 Full Movie In Hindi 720p HD BluRay Download 2013

Red 2 Full Movie In Hindi 720p HD BluRay Download 2013

Red 2 Full Movie In Hindi 720p HD BluRay Download 2013

Red 2 Full Movie In Hindi 720p HD BluRay Download 2013

Red 2 Full Movie In Hindi 720p HD BluRay Download 2013

Red 2 Full Movie In Hindi 720p HD BluRay Download 2013

Red 2 Full Movie In Hindi 720p HD BluRay Download 2013

Watch The Full HD 720p, 1080p Movie Trailers

Watch Red 2 (2013) Movie Trailer

Direct Download Links Of Red 2 Full Movie In Hindi + English 720p BluRay Given Below

Free Download Direct Links HD

Direct Links For Premium Users

If you are the member of this site then enter your login details and Enjoy Direct Links

Leave a Reply

Your email address will not be published. Required fields are marked *

Check Also

Narcos Mexico Season 1 – Complete

Narcos Mexico Season 1 Free Download With English Subtitles In 720p WEBRip HD Quality Enco…