Recess School’s Out 2001 Full Movie Free Download In Hindi + English Dual Audio 720p Quality Encoded In x264.

Recess School's Out In Hindi 720p HD Full Movie Free Download Dual Audio

Details Of Full Length Free Videos

Title: Recess School’s Out 2001 In Hindi
Genres: Animation | Comedy | Family | Mystery | Sci-Fi
Country: USA
Language: Hindi | English
Release Date: 16 February 2001
Quality: 720p x264
Format: MKV
Size: 570-MB

IMDb

Storyline

Recess School’s Out In Hindi 720p HD Movie Free Download It’s the most exciting time of year at Third Street Elementary– the end of the School Year! But boredom quickly sets in for protagonist TJ Detweiler, as his friends (the other 5 protagonist children) are headed for Summer Camp. One day, while passing by the school on his bike, he notices a green glow coming from the school’s auditorium. This is the work of the insidious ex-principal of Third Street, Phillium Benedict and his gang of ninjas and secret service look-alikes! Benedict is planning to get rid of Summer Vacation using his newly-acquired Tractor Beam, which he stole from the US Military Base in an effort to raise US Test Scores, and it’s up to the Recess Gang to stop him! In the end, TJ and the gang, with the help from the other students, Recess School’s Out Hindi Dubbed Full Length Movie Download Principal Prickly, Ms. Finster and the other teachers, destroy the laser, Benedict and his henchmen are arrested, and the kids (TJ’s buddies) decide to spend their Summer with TJ.

About Recess School’s Out 2001 Animation Movie

Recess: School’s Out is a 2001 American animated comedy film based on the Disney television series Recess. It was produced by Walt Disney Pictures, Walt Disney Television Animation and Walt Disney Television Animation Digital Production with animation done by Sunwoo Animation and Sunwoo Digital International. The film was distributed by Buena Vista Pictures Distribution, and released theatrically in the United States on February 16, 2001. The film also serves as the show’s season five finale.

Cast Of Recess School’s Out 2001 Hindi Movie

  • Andrew Lawrence as Theodore Jasper “T.J.” Detweiler
  • Rickey D’Shon Collins as Vince LaSalle
  • Jason Davis as Mikey Blumberg
  • Ashley Johnson as Gretchen Grundler
  • Courtland Mead as Gus Griswald
  • Pamela Segall as Ashley Spinelli
  • Dabney Coleman as Principal Peter Prickly
  • Melissa Joan Hart as Becky Detweiler
  • April Winchell as Muriel Finster / Mrs. Detweiler / Lunch Lady #3
  • James Woods as Dr. Phillium Benedict
  • Clancy Brown as Bald Man
  • Peter MacNicol as Professor Fenwick
  • Tony Jay as Dr. Rosenthal
  • Andrea Martin as Lunchlady Harriet
  • Tress MacNeille as Lunchlady Irma / Ms. Lemon / Opera Director / Dr. Steinheimer
  • Elizabeth Daily as Captain Sticky
  • R. Lee Ermey as Col. O’Malley
  • Katey Sagal as Mrs. Flo Spinelli
  • Paul Willson as Mr. Detweiler
  • Allyce Beasley as Ms. Grotke
  • Clyde Kusatsu as Mr. Yamashiro
  • Nicholas Turturro as Cop #1
  • Kevin Michael Richardson as Cop #2
  • Dan Castellaneta as Guard #1
  • Diedrich Bader as Guard #2
  • Robert Stack as Superintendent
  • Charles Kimbrough as Mort Chalk
  • Erik von Detten as Erwin Lawson / Captain Brad
  • Lane Toran as King Bob / King Fred
  • Ron Glass as Dr. Lazenby / Tech #2
  • Michael Shulman as Francis the Hustler kid
  • Anndi McAfee as Ashley A.
  • Gregg Berger as Tech #1
  • Jack Riley as Golfer #1
  • Philip Proctor as Golfer #2 / Scientist #2
  • Kath Soucie as Director / Hector / Butch
  • Ken Swofford as Coach
  • Justin Shenkarow as Soldier kid / Wrestler kid
  • Patrick Renna as Jerome
  • Nancy Cartwright as Gordy

Video File Details

Video File Details

Format : Matroska
Format version : Version 4 / Version 2
File size : 569 MiB
Duration : 1 h 19 min
Overall bit rate : 995 kb/s
Movie name : Recess – School’s Out 2001 In Hindi

Video
Format : AVC
Format/Info : Advanced Video Codec
Codec ID : V_MPEG4/ISO/AVC
Duration : 1 h 19 min
Bit rate : 799 kb/s
Width : 1 280 pixels
Height : 726 pixels
Display aspect ratio : 16:9
Frame rate mode : Constant
Frame rate : 25.000 FPS
Color space : YUV
Chroma subsampling : 4:2:0
Bit depth : 8 bits
Scan type : Progressive
Bits/(Pixel*Frame) : 0.034
Stream size : 457 MiB (80%)
Writing library : x264 core 155 r2901 7d0ff22

Audio #1
Format : AAC
Duration : 1 h 19 min
Bit rate : 96.0 kb/s
Channel(s) : 2 channels
Channel positions : Front: L R
Sampling rate : 48.0 kHz
Frame rate : 46.875 FPS (1024 SPF)
Compression mode : Lossy
Delay relative to video : -21 ms
Stream size : 55.1 MiB (10%)
Language : Hindi

Audio #2
Format : AAC
Format/Info : Advanced Audio Codec
Duration : 1 h 19 min
Bit rate : 96.0 kb/s
Channel(s) : 2 channels
Channel positions : Front: L R
Sampling rate : 48.0 kHz
Frame rate : 46.875 FPS (1024 SPF)
Compression mode : Lossy
Delay relative to video : -21 ms
Stream size : 55.1 MiB (10%)
Language : English

Images, Screenshots Of Full Episodes

Some Images Of Recess School’s Out Hindi Movie 720p HD

Recess School's Out In Hindi 720p HD Full Movie Free Download Dual Audio

Recess School's Out In Hindi 720p HD Full Movie Free Download Dual Audio

Recess School's Out In Hindi 720p HD Full Movie Free Download Dual Audio

Watch The Full HD 720p, 1080p Movie Trailers

Watch Recess School’s Out 2001 Full Movie Trailer

Direct Download Links Of Recess School’s Out 2001 Hindi Dubbed Full Movie In 720p Given Below

Free Download Direct Links HD

Direct Links For Premium Users

If you are the member of this site then enter your login details and Enjoy Direct Links

Leave a Reply

Your email address will not be published. Required fields are marked *

Check Also

Bucket List (2018) Marathi 720p HDRip x264 AAC – 1.1 GB

Bucket List 2018 Full Marathi Movie Free Download In 720p HDRip QUality Encoded In x264 MK…