Pataakha Full Movie Download 720p HDRip Quality Encoded In x264 MKV.

Pataakha Full Movie Download 720p HD Free Direct Links

Details Of Full Length Free Videos

Title: Pataakha 2018
Genres: Action | Comedy | Drama
Country: India
Language: Hindi
Release Date: 28 September 2018
Quality: 720p HDRip x264
Audio: AAC
Format: MKV
Size: 970-MB

IMDb

Storyline

Pataakha Full Movie Free Download Based on Charan Singh Pathik’s short story Do Behnein, Pataakha narrates the story of two feuding sisters who realize the true nature of their relationship only after marriage separates them. Badki (Radhika Madan) and Chhutki (Sanya Malhotra) live in a small town in Rajasthan. They are sisters who quarrel about everything from stolen bidis to torn clothes. Dipper (Sunil Grover) is their nosy neighbour, who is always on the lookout for an opportunity to make the sisters go to war, while their father (Vijay Raaz), a single parent, is always trying to make peace between the warring sisters Pataakha 720p Full Movie Download.

Pataakha 2018 Movie Download is a 2018 Indian Hindi comedy-drama film directed by Vishal Bhardwaj about two sisters who share a difficult relationship with each other. Based on Charan Singh Pathik’s short story titled Do Behnein, the film features debutant Radhika Madan, Sanya Malhotra, Sunil Grover, Saanand Verma and Vijay Raaz in lead roles and was scheduled to have its theatrical release on 28 September 2018.

Pataakha 2018 Full Movie Cast

  • Radhika Madan as Champa ‘Badki’ Kumari
  • Sanya Malhotra as Genda ‘Chuttki’ Kumari
  • Sunil Grover as Dipper Naradmuni
  • Vijay Raaz as Bechara Bapu
  • Saanand Verma as Tharki Patel
  • Lankesh Bhardwaj as Govt.Officer
  • Namit Das as Jagan
  • Abhishek Duhan as Vishnu
  • Sameer Khakkar as Sarpanch
  • Usha Nagar as Grandmother
  • Malaika Arora (special appearance in song “Hello Hello”)

MKV File Details

MKV File Details

===================================================================
General
Complete name : Pataakha 2018 Hindi 720p HDRip x264 5.1 AAC { TaRa }.mkv
Format : Matroska
Format version : Version 4
File size : 971 MiB
Duration : 2 h 11 min
Overall bit rate : 1 035 kb/s
===================================================================
Video
ID : 1
Format : AVC
Format/Info : Advanced Video Codec
Format profile : [email protected]
Format settings : CABAC / 8 Ref Frames
Format settings, CABAC : Yes
Format settings, ReFrames : 8 frames
Codec ID : V_MPEG4/ISO/AVC
Duration : 2 h 11 min
Bit rate : 900 kb/s
Width : 1 280 pixels
Height : 544 pixels
Display aspect ratio : 2.35:1
Frame rate mode : Constant
Frame rate : 24.000 FPS
Color space : YUV
Chroma subsampling : 4:2:0
Bit depth : 8 bits
Scan type : Progressive
Bits/(Pixel*Frame) : 0.054
Stream size : 848 MiB (87%)
Title : …..::::: TaRa :::::….
Language : Hindi
Default : Yes
Forced : No
===================================================================
Audio
ID : 2
Format : AAC LC
Format/Info : Advanced Audio Codec Low Complexity
Codec ID : A_AAC-2
Duration : 2 h 11 min
Bit rate : 128 kb/s
Channel(s) : 6 channels
Channel layout : C L R Ls Rs LFE
Sampling rate : 44.1 kHz
Frame rate : 43.066 FPS (1024 SPF)
Compression mode : Lossy
Delay relative to video : -105 ms
Stream size : 120 MiB (12%)
Title : …..::::: TaRa :::::….
Language : Hindi
Default : Yes
Forced : No
===================================================================

Images, Screenshots Of Full Episodes

Some Images Of Pataakha Full Movie 720p HDRip x264

Pataakha Full Movie Download 720p HD Free Direct Links

Pataakha Full Movie Download 720p HD Free Direct Links

Pataakha Full Movie Download 720p HD Free Direct Links

Pataakha Full Movie Download 720p HD Free Direct Links

Pataakha Full Movie Download 720p HD Free Direct Links

Pataakha Full Movie Download 720p HD Free Direct Links

Pataakha Full Movie Download 720p HD Free Direct Links

Pataakha Full Movie Download 720p HD Free Direct Links

Pataakha Full Movie Download 720p HD Free Direct Links

Watch The Full HD 720p, 1080p Movie Trailers

Watch Pataakha 2018 Full Movie Trailer

Direct Download Links Of Pataakha 2018 Full Movie In 720p HD Given Below

Free Download Direct Links HD

Direct Links For Premium Users

If you are the member of this site then enter your login details and Enjoy Direct Links

Leave a Reply

Your email address will not be published. Required fields are marked *

Check Also

Bucket List (2018) Marathi 720p HDRip x264 AAC – 1.1 GB

Bucket List 2018 Full Marathi Movie Free Download In 720p HDRip QUality Encoded In x264 MK…