Operation Mekong Full Movie In Hindi Download 720p BluRay HD Quality Encoded In x264 MKV With English Subtitles.

Operation Mekong Full Movie Download In Hindi 720p BLuRay HD Dubbed With Subtitles

Details Of Full Length Free Videos

Title: Operation Mekong 2016
Genres: Action | Adventure | Crime | Drama | History | Mystery | Thriller
Country: China | Hong Kong
Language: Hindi | Chinese
Release Date: 30 September 2016 (USA)
Quality: 720p BluRay x264
Subtitles: English
Format: MKV
Size: 1.5-GB

IMDb

Storyline

Operation Mekong Full Movie Download In Hindi 720p HD Two Chinese merchant ships were attacked in Mekong river and 13 crews were killed. Thai policemen found 9 hundred thousand crystal meth on the ships. This new shocked China. Gang Gao, the leader of Narcotics Corps in Yun Nan province was assigned to lead a special team to Golden Triangle to investigate. Cooperated with a informer, Fanxin Wu, Operation Mekong English Subtitles Download Gao discovered that 13 crew member were brutally murdered and framed up. Gao and Wu decided to fight for justice out of China no matter what it takes.

About Operation Mekong 2016 Film:

Operation Mekong is a 2016 Chinese-Hong Kong crime action film directed by Dante Lam and starring Zhang Hanyu and Eddie Peng. The film is based on the 2011 Mekong River massacre. It was released in China on September 30, 2016 and became one of the highest-grossing films in China Operation Mekong Hindi Dubbed Movie Download.

Operation Mekong Full Movie Cast:

  • Zhang Hanyu as Gao Gang
  • Eddie Peng as Fang Xinwu
  • Feng Wenjuan as Guo Bing “Aphrodite”
  • Sun Chun as Yu Ping
  • Chen Baoguo as Minister of Public Security Jiang Haifeng
  • Liu Xianda as Xie Wenfeng “Icarus” (哪吒 meaning Nezha)
  • Jonathan Wu Linkai as Kuai Yitong “Hermes”
  • Zhao Jian as Guo Xu “Poseidon”
  • Zhan Liguo as Fu Baowei “Panoptes” (二郎 meaning Erlangshen)
  • Shi Zhanjie s Jiang Xing “Ares” (木星 meaning Jupiter)
  • Wu Xudong as Wild Bull Team Leader
  • Carl Ng as Pierre
  • Pawalit Mongkolpisit as Naw Khar
  • Vithaya Pansringarm as P’Som
  • Ken Lo as Xing Deng
  • Ron Weaver as Puja
  • Ganesh Acharya as Mr Zar
  • Mandy Wei as Fang Xinwu’s girlfriend (cameo)

MKV File Details

MKV File Details

General Operation Mekong In Hindi Dubbed Download
Format : Matroska
Format version : Version 4
File size : 1.48 GiB
Duration : 2 h 3 min
Overall bit rate : 1 716 kb/s

Video
ID : 1
Format : AVC Operation Mekong Dual Audio Movie Download
Format/Info : Advanced Video Codec
Format profile : [email protected]
Format settings : CABAC / 4 Ref Frames
Format settings, CABAC : Yes
Format settings, ReFrames : 4 frames
Codec ID : V_MPEG4/ISO/AVC
Duration : 2 h 3 min
Bit rate : 1 400 kb/s
Width : 1 280 pixels
Height : 534 pixels
Display aspect ratio : 2.40:1
Original display aspect ratio : 2.40:1
Frame rate mode : Constant
Frame rate : 24.000 FPS
Color space : YUV
Chroma subsampling : 4:2:0
Bit depth : 8 bits
Scan type : Progressive
Bits/(Pixel*Frame) : 0.085
Stream size : 1.21 GiB (82%)
Default : Yes
Forced : No
Color range : Limited
Color primaries : BT.709
Transfer characteristics : BT.709
Matrix coefficients : BT.709

Audio #1
ID : 2
Format : AAC LC
Format/Info : Advanced Audio Codec Low Complexity
Codec ID : A_AAC-2
Duration : 2 h 3 min
Bit rate : 224 kb/s
Channel(s) : 2 channels
Channel layout : L R
Sampling rate : 48.0 kHz
Frame rate : 46.875 FPS (1024 SPF)
Compression mode : Lossy
Delay relative to video : -21 ms
Stream size : 198 MiB (13%)
Title : DesireMovies.Men Hindi DTH 2.0
Language : Hindi
Default : Yes
Forced : No

Audio #2
ID : 3
Format : AAC LC SBR Operation Mekong 2016 English Subtitles Free Download
Format/Info : Advanced Audio Codec Low Complexity with Spectral Band Replication
Commercial name : HE-AAC
Format settings : NBC
Codec ID : A_AAC-5
Duration : 2 h 3 min
Bit rate : 80.0 kb/s
Channel(s) : 2 channels
Channel layout : L R
Sampling rate : 48.0 kHz
Frame rate : 23.438 FPS (2048 SPF)
Compression mode : Lossy
Delay relative to video : -105 ms
Stream size : 70.6 MiB (5%)
Title : Stereo
Language : Chinese
Default : No
Forced : No

Text
ID : 4
Format : PGS
Muxing mode : zlib
Codec ID : S_HDMV/PGS
Codec ID/Info : Picture based subtitle format used on BDs/HD-DVDs
Duration : 1 h 57 min
Bit rate : 23.9 kb/s
Count of elements : 2158
Stream size : 20.0 MiB (1%)
Language : English
Default : Yes
Forced : No

Images, Screenshots Of Full Episodes

Some Images Of Operation Mekong Hindi Dubbed 720p BluRay x264 Movie

Operation Mekong Full Movie Download In Hindi 720p BLuRay HD Dubbed With Subtitles

Operation Mekong Full Movie Download In Hindi 720p BLuRay HD Dubbed With Subtitles

Operation Mekong Full Movie Download In Hindi 720p BLuRay HD Dubbed With Subtitles

Operation Mekong Full Movie Download In Hindi 720p BLuRay HD Dubbed With Subtitles

Operation Mekong Full Movie Download In Hindi 720p BLuRay HD Dubbed With Subtitles

Operation Mekong Full Movie Download In Hindi 720p BLuRay HD Dubbed With Subtitles

Operation Mekong Full Movie Download In Hindi 720p BLuRay HD Dubbed With Subtitles

Watch The Full HD 720p, 1080p Movie Trailers

Watch Operation Mekong 2016 Full Movie Trailer

Direct Download Links Of Operation Mekong Full Movie In Hindi 720p BluRay Given Below

Free Download Direct Links HD

Direct Links For Premium Users

If you are the member of this site then enter your login details and Enjoy Direct Links

Leave a Reply

Your email address will not be published. Required fields are marked *

Check Also

Bucket List (2018) Marathi 720p HDRip x264 AAC – 1.1 GB

Bucket List 2018 Full Marathi Movie Free Download In 720p HDRip QUality Encoded In x264 MK…