Mar Gaye Oye Loko Full Movie Free Download In 720p Pre-DVDRip Quality Encoded In x264.

Mar Gaye Oye Loko Free Download Full Movie In 720p Pre DVDRip

Details Of Full Length Free Videos

Title: Mar Gaye Oye Loko 2018
Genres: Comedy | Drama | Fantasy
Country: India
Language: Punjabi
Release Date: 31 August 2018
Quality: 720p Pre-DVDRip x264
Format: MKV
Size: 1.1-GB

IMDb

Storyline

Mar Gaye Oye Loko Free Download Full Movie 720p Pre-DVDRip A man’s soul is accidentally taken to heaven by Yama instead of the other one who he really came to take away with him. The story revolves around how this man comes back to earth to marry his love.

Mar Gaye Oye Loko is an 2018 Indian-Punjabi language romedy film directed by Simerjit Singh starring Gippy Grewal, Binnu Dhillon & Sapna Pabbi in lead roles. Mar Gaye Oye Loko is a Punjabi comedy about a simple boy, Tittu(Gippy Grewal), and his journey to finally marry the girl of his dreams, Simran(Sapna Pabbi). She in turn happens to be interested in the local gangster, Gill Baiji(Binnu Dhillon). Gill Baiji gets shot by his arch rival Sidhu(Jaggi Singh) and this event changes Tittu’s fate forever. Mar Gaye Oye Loko has Jaswinder Bhalla, Gurpreet Ghuggi, Karamjit Anmol, B.N. Sharma and Jaggi Singh in supporting roles; it marked as punjabi debut for Sapna Pabbi Mar Gaye Oye Loko Movie Download.

About Mar Gaye Oye Loko Movie:

Mar Gaye Oye Loko’s story was written by Gippy Grewal who had also written Ardaas and Manje Bistre all released under his production company Humble Motion Pictues. Gippy Grewal served as writer, producer and Actor in film. In an interview Gippy Grewal disclosed that the role of Gill Baiji played by Binnu Dhillon was written for himself but due to requirements for looks he doesn’t played the role. Film was shot in Punjab. Soundtrack of film was composed by different artists Kuwar Virk, Jay K, Snappy and Gurmeet Singh.

Cast

  • Gippy Grewal as Tittu
  • Sapna Pabbi as Simran
  • Binnu Dhillon as Gill Bai
  • Jaswinder Bhalla as Yamraj
  • Karamjit Anmol as Hakalchu Yamdoot
  • Gurpreet Ghuggi as Pardhan
  • B.N. Sharma as Doctor
  • Jaggi Singh As Sidhu
  • Hobby Dhaliwal as YSF Checker
  • Parminder Gill

Video File Details

Video File Details

General
Complete name : Mar Gaye Oye Loko (2018) 720p Punjabi Pre-DVDRip x264 AAC
Format : Matroska
Format version : Version 4 / Version 2
File size : 1.15 GiB
Duration : 1 h 53 min
Overall bit rate : 1 448 kb/s
Encoded date : UTC 2018-10-16 15:12:54
Writing application : mkvmerge v8.1.0 (‘Psychedelic Postcard’) 32bit
Writing library : libebml v1.3.1 + libmatroska v1.4.2

Video
ID : 1
Format : AVC
Format/Info : Advanced Video Codec
Format profile : [email protected]
Format settings, CABAC : Yes
Format settings, RefFrames : 5 frames
Codec ID : V_MPEG4/ISO/AVC
Duration : 1 h 53 min
Bit rate : 1 280 kb/s
Width : 1 632 pixels
Height : 718 pixels
Display aspect ratio : 2.25:1
Frame rate mode : Constant
Frame rate : 47.952 FPS
Color space : YUV
Chroma subsampling : 4:2:0
Bit depth : 8 bits
Scan type : Progressive
Bits/(Pixel*Frame) : 0.023
Stream size : 1.02 GiB (89%)
Writing library : x264 core 148 r2795 aaa9aa8
Default : Yes
Forced : No

Audio
ID : 2
Format : AAC
Format/Info : Advanced Audio Codec
Format profile : LC
Codec ID : A_AAC
Duration : 1 h 53 min
Bit rate : 161 kb/s
Channel(s) : 2 channels
Channel positions : Front: L R
Sampling rate : 48.0 kHz
Frame rate : 46.875 FPS (1024 SPF)
Compression mode : Lossy
Stream size : 130 MiB (11%)
Language : Panjabi
Default : Yes
Forced : No

Images, Screenshots Of Full Episodes

Some Images Of Mar Gaye Oye Loko 2018 Punjabi Movie 720p Pre-DVDRip

Mar Gaye Oye Loko Free Download Full Movie In 720p Pre DVDRip

Watch The Full HD 720p, 1080p Movie Trailers

Watch Mar Gaye Oye Loko 2018 Full Movie Trailer

Direct Download Links Of Mar Gaye Oye Loko 2018 Movie In 720p Pre-DVDRip Given Below

Free Download Direct Links HD

Direct Links For Premium Users

If you are the member of this site then enter your login details and Enjoy Direct Links

Leave a Reply

Your email address will not be published. Required fields are marked *

Check Also

Bucket List (2018) Marathi 720p HDRip x264 AAC – 1.1 GB

Bucket List 2018 Full Marathi Movie Free Download In 720p HDRip QUality Encoded In x264 MK…