Little Things Season 2 All Episodes Free Download Netflix 1080p NF WEB-DL Full HD Quality Encoded In H.264 With Hindi + English Subtitles ( +25 More).

Little Things Season 2 Free Download All Full Length Episodes In 1080p Full HD With Subtitles

Details Of Full Length Free Videos

Title: Little Things Season 2
Genres: Comedy | Romance
Country: India
Language: English | Hindi
Subtitle: Hindi | English [1080p Only]
Release Date: 5 October 2018
Quality: 1080p WEB-Dl H.264 | 720p x264 | 480p x264
Audio: DD+5.1
Format: MKV
Size: Various

IMDb | Netflix

Storyline

Little Things Season 2 Complete Web Series Of Netflix Free Download 1080p Dhruv and Kavya are comfortably in love – they live with each other and everything seems bright and jolly. But living together doesn’t just mean sharing joys, hopes and aspirations. It also means being there through sorrows, failures and disappointments. It’s these rough patches that make Dhruv and Kavya rediscover themselves, their relationship and how much they mean to each other Little Things Season 2 Episodes Download Direct Links.

There is not much that happens in the second season of Dice Media’s Little Things. But that does not imply there is not enough to enjoy. It is an evolved version of season 1 that aired two years ago. While season one got the grammar of the slice-of-life genre right, its tone was not ambitious enough to reach out to those who want to have their cake and eat it too.

Dhruv Vats (Dhruv Sehgal) and Kavya Kulkarni (Mithila Palkar) have evolved as much as the actors playing the parts. Free Download Second Season Of Little Things Netflix The chinks in their armour are more visible, the conflicts are more aggressive and the resolution more gradual. But nowhere do these characters or the screenplay indicate that growing up only makes relationships messier. The way they make up with each other is endearing to a point that you wish to rush to your partner and give them an awkward hug.

Video File Details

Video File Details

General
Unique ID : 194378455223021747430469677725213370515 (0x923BEDC2487A6402AEADEA52E619A893)
Complete name : Little.Things.2018.S02.1080p.NF.WEB-DL.DD+5.1.H.264-RnC\Little.Things.S02E01.Milk.Cake.1080p.NF.WEB-DL.DD+5.1.H.264-RnC.mkv
Format : Matroska
Format version : Version 4 / Version 2
File size : 1.05 GiB
Duration : 28 min 22 s
Overall bit rate mode : Variable
Overall bit rate : 5 292 kb/s
Encoded date : UTC 2018-10-05 08:01:07
Writing application : Little Things Season 2 Watch Online Free mkvmerge v11.0.0 (‘Alive’) 64bit
Writing library : libebml v1.3.4 + libmatroska v1.4.5

Video
ID : 1
Format : AVC
Format/Info : Advanced Video Codec
Format profile : [email protected]
Format settings : CABAC / 3 Ref Frames
Format settings, CABAC : Yes
Format settings, ReFrames : 3 frames
Codec ID : V_MPEG4/ISO/AVC
Duration : 28 min 22 s
Bit rate mode : Variable
Bit rate : 4 020 kb/s
Maximum bit rate : 6 030 kb/s
Width : 1 920 pixels
Height : 1 080 pixels
Display aspect ratio : 16:9
Frame rate mode : Constant
Frame rate : 25.000 FPS
Color space : YUV
Chroma subsampling : 4:2:0
Bit depth : 8 bits
Scan type : Progressive
Bits/(Pixel*Frame) : 0.078
Stream size : 813 MiB (76%)
Writing library : x264 core 148 r2715 7e75228
Encoding settings : cabac=1 / ref=3 / deblock=1:0:0 / analyse=0x1:0x111 / me=umh / subme=10 / psy=1 / psy_rd=1.00:0.00 / mixed_ref=1 / me_range=24 / chroma_me=1 / trellis=2 / 8x8dct=0 / cqm=0 / deadzone=21,11 / fast_pskip=1 / chroma_qp_offset=-2 / threads=8 / lookahead_threads=1 / sliced_threads=0 / nr=0 / decimate=1 / interlaced=0 / bluray_compat=0 / stitchable=1 / constrained_intra=0 / bframes=2 / b_pyramid=0 / b_adapt=2 / b_bias=0 / direct=3 / weightb=1 / open_gop=0 / weightp=2 / keyint=50 / keyint_min=26 / scenecut=0 / intra_refresh=0 / rc_lookahead=50 / rc=2pass / mbtree=1 / bitrate=4020 / ratetol=1.0 / qcomp=0.50 / qpmin=6 / qpmax=51 / qpstep=4 / cplxblur=20.0 / qblur=0.5 / vbv_maxrate=6030 / vbv_bufsize=8040 / nal_hrd=vbr / filler=0 / ip_ratio=1.40 / aq=1:1.00
Default : Yes
Forced : No

Audio #1
ID : 2
Format : E-AC-3
Format/Info : Netflix TV Series Little Things Season 2 1080p Episodes Enhanced Audio Coding 3
Codec ID : A_EAC3
Duration : 28 min 22 s
Bit rate mode : Constant
Bit rate : 640 kb/s
Channel(s) : 6 channels
Channel positions : Front: L C R, Side: L R, LFE
Sampling rate : 48.0 kHz
Frame rate : 187.500 FPS (256 SPF)
Compression mode : Lossy
Stream size : 130 MiB (12%)
Language : Hindi
Service kind : Complete Main
Default : Yes
Forced : No

Audio #2
ID : 3
Format : E-AC-3
Format/Info : Enhanced Audio Coding 3
Codec ID : A_EAC3
Duration : 28 min 22 s
Bit rate mode : Constant
Bit rate : 640 kb/s
Channel(s) : 6 channels
Channel positions : Front: L C R, Side: L R, LFE
Sampling rate : 48.0 kHz
Frame rate : 187.500 FPS (256 SPF)
Compression mode : Lossy
Stream size : 130 MiB (12%)
Language : English
Service kind : Little Things Season 2 English Subtitles Download Complete Main
Default : No
Forced : No

Text #1 Netflix Little Things Season 2 Free Download In Hindi
ID : 4
Format : UTF-8
Codec ID : S_TEXT/UTF8
Codec ID/Info : UTF-8 Plain Text
Duration : 25 min 12 s
Bit rate : 95 b/s
Count of elements : 447
Stream size : 17.6 KiB (0%)
Language : English
Default : No
Forced : No

Text #2
ID : 5 Little Things Season 2 Download In English, Hindi With Subtitles
Format : UTF-8
Codec ID : S_TEXT/UTF8
Codec ID/Info : UTF-8 Plain Text
Duration : 25 min 12 s
Bit rate : 234 b/s
Count of elements : 450
Stream size : 43.3 KiB (0%)
Language : Hindi
Default : No
Forced : No

Images, Screenshots Of Full Episodes

Some Images Of Little Things Season 2 Netflix Episodes 1080p

Little Things Season 2 Free Download All Full Length Episodes In 1080p Full HD With Subtitles

Little Things Season 2 Free Download All Full Length Episodes In 1080p Full HD With Subtitles

Little Things Season 2 Free Download All Full Length Episodes In 1080p Full HD With Subtitles

Little Things Season 2 Free Download All Full Length Episodes In 1080p Full HD With Subtitles

Little Things Season 2 Free Download All Full Length Episodes In 1080p Full HD With Subtitles

Little Things Season 2 Free Download All Full Length Episodes In 1080p Full HD With Subtitles

Little Things Season 2 Free Download All Full Length Episodes In 1080p Full HD With Subtitles

Little Things Season 2 Free Download All Full Length Episodes In 1080p Full HD With Subtitles

Watch The Full HD 720p, 1080p Movie Trailers

Watch Little Things Season 2 Official Netflix Trailer

Direct Download Links Of Little Things Season 2 All Episodes 1080p Given Below

Free Download Direct Links HD

Direct Links For Premium Users

If you are the member of this site then enter your login details and Enjoy Direct Links

18 Comments

  1. Sudhanshu

    October 5, 2018 at 10:56 pm

    Bhai jaan mere pe 1 gb 1 episode ke liye nhi h 480p meh ya 720p meh karvado kuch..
    Bro i don’t have 1 GB for each episode please upload in 480p or 720p.
    Thank you.

    Reply

    • admin

      admin

      October 6, 2018 at 1:32 am

      720p quality are available soon.

      Reply

      • ashu

        October 6, 2018 at 1:52 pm

        480 p would be great man please

        Reply

    • admin

      admin

      October 6, 2018 at 2:53 pm

      720p added

      Reply

  2. DJ

    October 6, 2018 at 12:55 pm

    When are you uploading the series in 720p?

    Reply

    • admin

      admin

      October 6, 2018 at 2:53 pm

      720p added

      Reply

  3. Anantnag

    October 6, 2018 at 2:33 pm

    It isn’t downloading it’s saying
    Resources reached

    Reply

    • admin

      admin

      October 6, 2018 at 2:43 pm

      Fixed. Try Again.

      Reply

  4. Kunal

    October 6, 2018 at 3:48 pm

    Upload in 480p
    That’s the perfect quality for limited data.

    Reply

  5. vengu95

    October 6, 2018 at 11:03 pm

    Please upload subtitles in a separate zip if possible.

    Reply

  6. AGASTHI

    October 8, 2018 at 1:59 am

    Where can I get the subtitles as I didn’t find any subtitles whole downloading 480p

    Reply

    • admin

      admin

      October 8, 2018 at 2:10 am

      Subtitles Are Only In 1080p Episodes.

      Reply

      • Venkatesh

        October 12, 2018 at 11:23 pm

        Please make it available for other versions too

        Reply

  7. GOURAV SHARMA

    October 8, 2018 at 11:23 am

    Please add Life shi hai season 2

    Reply

  8. sagar

    October 9, 2018 at 7:48 am

    try to add series in zip format which contain all EP in one

    Reply

  9. Venkatesh

    October 12, 2018 at 11:22 pm

    Please do upload subtitle files alone or for 420p as well as 720p… Plzzzz

    Reply

  10. Pratheep

    October 13, 2018 at 11:50 am

    Plss add subtitles for other versions too.. We don’t have much data per day

    Reply

Leave a Reply

Your email address will not be published. Required fields are marked *

Check Also

B.Tech Season 1 In Hindi – Complete

B Tech Web Series Full Hindi Episodes From Season 1 Free Download In 720p HDRip Quality En…