Kong Skull Island Full Movie In Hindi 720p BluRay HD Quality Encoded In x264 With English Subtitles and DD 5.1 Audio.

Kong Skull Island Full Movie In Hindi Dual Audio Dubbed Download 720p BluRay HD

Details Of Full Length Free Videos

Title: Kong Skull Island Full Movie
Genres: Action | Adventure | Fantasy | Sci-Fi
Country: USA | China
Language: Hindi | English
Release Date: 10 March 2017 (USA)
Subtitle: English
Quality: 720p BluRay x264
Audio: DD 5.1
Format: MKV
Size: 1.2-GB

IMDb

Storyline

Kong Skull Island Full Movie In Hindi A washed up monster chaser convinces the U.S. Government to fund a trip to an unexplored island in the South Pacific. Under the guise of geological research, the team travels to “Skull Island”. Upon arrival, the group discover that their mission may be complicated by the wildlife which inhabits the island. The beautiful vistas and deadly creatures create a visually stunning experience that is sure to keep your attention Kong Skull Island Full Movie Download.

About Kong Skull Island 2017 Film:

Kong: Skull Island is a 2017 American monster film directed by Jordan Vogt-Roberts. The film is a reboot of the King Kong franchise, and serves as the second film in Legendary’s MonsterVerse. The film stars Tom Hiddleston, Samuel L. Jackson, John Goodman, Brie Larson, Jing Tian, Toby Kebbell, John Ortiz, Corey Hawkins, Jason Mitchell, Shea Whigham, Thomas Mann, Terry Notary, and John C. Reilly Kong Skull Island Full Movie In Hindi Download.

The film was announced in July 2014 at San Diego Comic-Con and Vogt-Roberts was announced as the director in September 2014. The project originally began at Universal as an origin story but was later moved to Warner Bros. Kong Skull Island Movie Download in order to develop a shared cinematic universe featuring Godzilla and King Kong. Principal photography took place from October 2015 to March 2016 in Hawaii and various locations around Vietnam.

Kong: Skull Island was released on March 10, 2017, to positive reviews and was a box office success, grossing $168 million domestically and $566 million worldwide. The film was nominated for Best Visual Effects at the 90th Academy Awards. A crossover sequel, Godzilla vs. Kong, is scheduled to be released on May 22, 2020.

Plot

In 1944, two World War II fighter pilots, American pilot Hank Marlow and Japanese pilot Gunpei Ikari, parachute onto an island in the South Pacific after a dogfight and engage in close combat, but the fight is interrupted by a giant ape. In 1973, U.S. government agent Bill Randa hires former British Special Air Service Captain James Conrad, a skilled tracker, to guide an expedition to map out a recently discovered island known as Skull Island. They are escorted by Lieutenant Colonel Preston Packard and his subordinates. The group is joined by anti-war photographer Mason Weaver, who believes that the expedition is a secret military operation, and intends to expose it Kong Skull Island In Hindi 720p BluRay.

Cast Of Kong Skull Island 2017 Movie:

  • Tom Hiddleston
  • Samuel L. Jackson
  • Brie Larson
  • John C. Reilly
  • John Goodman
  • Corey Hawkins
  • John Ortiz
  • Tian Jing
  • Toby Kebbell
  • Jason Mitchell
  • Shea Whigham
  • Thomas Mann
  • Eugene Cordero
  • Marc Evan Jackson
  • Will Brittain

MKV File Details

MKV File Details

General
Format : Matroska
Format version : Version 4 / Version 2
File size : 1.23 GiB
Duration : 1 h 58 min
Overall bit rate : 1 487 kb/s

Video
ID : 1 Kong Skull Island 2017 Full Movie In Hindi BluRay
Format : AVC
Format/Info : Advanced Video Codec
Format profile : [email protected]
Format settings : CABAC / 4 Ref Frames
Format settings, CABAC : Yes
Format settings, RefFrames : 4 frames
Codec ID : V_MPEG4/ISO/AVC
Duration : 1 h 58 min
Bit rate : 900 kb/s
Width : 1 280 pixels
Height : 534 pixels
Display aspect ratio : 2.40:1
Original display aspect ratio : 2.40:1
Frame rate mode : Constant
Frame rate : 23.976 FPS
Color space : YUV
Chroma subsampling : 4:2:0
Bit depth : 8 bits
Scan type : Progressive
Bits/(Pixel*Frame) : 0.055
Stream size : 762 MiB (61%)
Writing library : x264 core 148
Default : Yes
Forced : No

Audio #1
ID : 2 Kong Skull Island 2017 In Hindi Dubbed Download
Format : AC-3
Format/Info : Audio Coding 3
Codec ID : A_AC3
Duration : 1 h 58 min
Bit rate mode : Constant
Bit rate : 448 kb/s
Channel(s) : 6 channels
Channel positions : Front: L C R, Side: L R, LFE
Sampling rate : 48.0 kHz
Frame rate : 31.250 FPS (1536 SPF)
Bit depth : 16 bits
Compression mode : Lossy
Stream size : 379 MiB (30%)
Language : Hindi
Service kind : Complete Main
Default : Yes
Forced : No

Audio #2
ID : 3
Format : AAC
Format/Info : Advanced Audio Codec
Format profile : LC
Codec ID : A_AAC-2
Duration : 1 h 58 min
Bit rate : 136 kb/s
Channel(s) : 2 channels
Channel positions : Front: L R
Sampling rate : 48.0 kHz
Frame rate : 46.875 FPS (1024 SPF)
Compression mode : Lossy
Stream size : 115 MiB (9%)
Language : English
Default : No
Forced : No

Text
ID : 4
Format : UTF-8
Codec ID : S_TEXT/UTF8
Codec ID/Info : UTF-8 Plain Text
Duration : 1 h 54 min
Bit rate : 46 b/s
Count of elements : 974
Stream size : 39.0 KiB (0%)
Default : Yes
Forced : No

Images, Screenshots Of Full Episodes

Some Images Of Kong Skull Island Full Movie 720p BluRay Hindi Dubbed

Kong Skull Island Full Movie In Hindi Dual Audio Dubbed Download 720p BluRay HD

Kong Skull Island Full Movie In Hindi Dual Audio Dubbed Download 720p BluRay HD

Kong Skull Island Full Movie In Hindi Dual Audio Dubbed Download 720p BluRay HD

Kong Skull Island Full Movie In Hindi Dual Audio Dubbed Download 720p BluRay HD

Kong Skull Island Full Movie In Hindi Dual Audio Dubbed Download 720p BluRay HD

Kong Skull Island Full Movie In Hindi Dual Audio Dubbed Download 720p BluRay HD

Kong Skull Island Full Movie In Hindi Dual Audio Dubbed Download 720p BluRay HD

Watch The Full HD 720p, 1080p Movie Trailers

Watch Kong Skull Island 2017 Full Movie Official Trailer

Direct Download Links Of Kong Skull Island Full Movie In Hindi 720p BluRay Given Below

Free Download Direct Links HD

Direct Links For Premium Users

If you are the member of this site then enter your login details and Enjoy Direct Links

Leave a Reply

Your email address will not be published. Required fields are marked *

Check Also

Narcos Mexico Season 1 – Complete

Narcos Mexico Season 1 Free Download With English Subtitles In 720p WEBRip HD Quality Enco…