Kingsman 2 Full Movie In Hindi Download 720p BluRay HD Quality Encoded In x264 MKV With DD 5.1 Dual Audio Audio.

Kingsman 2 Full Movie In Hindi Download Dual Audio Dubbed 720p BluRay

Details Of Full Length Free Videos

Title: Kingsman The Golden Circle 2017
Genres: Action | Adventure | Comedy
Country: UK | USA
Language: Hindi | English
Audio: DD 5.1
Release Date: 22 September 2017
Quality: 720p BluRay x264
Format: MKV
Size: 1.4-GB

IMDb

Storyline Of Kingsman 2 Hindi:

After the Kingsman headquarters are blown up by a psychotic criminal named Poppy Adams, the surviving agents find their way to an allied secret organisation Kingsman 2 Hindi Movie Download In 720p HD based in Kentucky, named Statesman. The two agencies must now work together in order to save the world and take down the so called ‘Golden Circle’.

Kingsman The Golden Circle In Hindi Download is a 2017 action spy comedy film produced and directed by Matthew Vaughn and written by Vaughn and Jane Goldman. It is a sequel to Kingsman: The Secret Service (2014) which is based on the comic book series Kingsman, created by Dave Gibbons and Mark Millar. Kingsman 2 Full Movie In Hindi 720p BluRay HD The film features Colin Firth, Taron Egerton, Mark Strong, Edward Holcroft, Hanna Alström and Sophie Cookson reprising their roles from the first film with Julianne Moore, Halle Berry, Pedro Pascal, Elton John, Channing Tatum and Jeff Bridges joining the cast. The plot follows the members of Kingsman needing to team up with their American counterpart, Statesman, after the world is held hostage by Poppy Adams and her drug cartel, “The Golden Circle” Hindi Dubbed.

Download Hindi Dubbed Kingsman: The Golden Circle premiered in London on 18 September 2017 and was theatrically released in the United Kingdom on 20 September 2017 in 3D and 2D and in the United States on 22 September 2017 in IMAX. It grossed $410 million worldwide against a budget of $104 million and received mixed reviews from critics, with the use of new characters and over-stylized action being met with a polarized reception and the 141 minute runtime being criticised.

Cast Of Kingsman The Golden Circle:

  • Colin Firth as Harry Hart / Galahad
  • Julianne Moore as Poppy Adams
  • Taron Egerton as Gary “Eggsy” Unwin / Galahad
  • Mark Strong as Merlin
  • Halle Berry as Ginger Ale
  • Elton John as himself
  • Channing Tatum as Tequila
  • Jeff Bridges as Champagne “Champ”
  • Pedro Pascal as Jack Daniels / Whiskey
  • Edward Holcroft as Charles “Charlie” Hesketh
  • Hanna Alström as Tilde, Crown Princess of Sweden
  • Bruce Greenwood as the President of the United States
  • Emily Watson as Chief of Staff Fox
  • Sophie Cookson as Roxanne “Roxy” Morton / Lancelot
  • Michael Gambon as Arthur

MKV File Details

MKV File Details

General
Complete name : Kingsman The Golden Circle (2017) 720p BluRay x264 [Dual-Audio][English DD5.1+Hindi DD5.1] – Mafiaking – M2Tv.mkv
Format : Matroska
Format version : Version 4 / Version 2
File size : 1.35 GiB
Duration : 2 h 21 min
Overall bit rate : 1 375 kb/s
Movie name : Kingsman The Golden Circle (2017) 720p BluRay x264 [Dual-Audio][English DD5.1+Hindi DD5.1] – Mafiaking – M2Tv

Video
ID : 1
Format : AVC
Codec ID : V_MPEG4/ISO/AVC
Duration : 2 h 21 min
Bit rate : 925 kb/s
Width : 1 280 pixels
Height : 536 pixels
Frame rate : 23.976 (24000/1001) FPS
Stream size : 933 MiB (67%)
Title : Mafiaking
Language : English
Default : Yes
Forced : No

Audio #1
ID : 2
Codec ID : A_AC3
Duration : 2 h 21 min
Bit rate mode : Constant
Bit rate : 224 kb/s
Channel(s) : 6 channels
Sampling rate : 48.0 kHz
Stream size : 226 MiB (16%)
Title : Mafiaking
Language : Hindi
Service kind : Complete Main
Default : Yes

Audio #2
ID : 3
Codec ID : A_AC3
Duration : 2 h 21 min
Bit rate mode : Constant
Bit rate : 224 kb/s
Channel(s) : 6 channels
Sampling rate : 48.0 kHz
Stream size : 226 MiB (16%)
Title : Mafiaking
Language : English
Service kind : Complete Main
Default : No

Images, Screenshots Of Full Episodes

Some Images Of Kingsman 2 Hindi + English 720p BluRay x264 Full Movie

Kingsman 2 Full Movie In Hindi Download Dual Audio Dubbed 720p BluRay

Kingsman 2 Full Movie In Hindi Download Dual Audio Dubbed 720p BluRay

Kingsman 2 Full Movie In Hindi Download Dual Audio Dubbed 720p BluRay

Kingsman 2 Full Movie In Hindi Download Dual Audio Dubbed 720p BluRay

Kingsman 2 Full Movie In Hindi Download Dual Audio Dubbed 720p BluRay

Kingsman 2 Full Movie In Hindi Download Dual Audio Dubbed 720p BluRay

Kingsman 2 Full Movie In Hindi Download Dual Audio Dubbed 720p BluRay

Kingsman 2 Full Movie In Hindi Download Dual Audio Dubbed 720p BluRay

Kingsman 2 Full Movie In Hindi Download Dual Audio Dubbed 720p BluRay

Watch The Full HD 720p, 1080p Movie Trailers

Watch Kingsman 2 Full Movie Official Trailer

Direct Download Links Of Kingsman 2 Full Movie In Hindi + English 720p BluRay Given Below

Free Download Direct Links HD

Direct Links For Premium Users

If you are the member of this site then enter your login details and Enjoy Direct Links

Leave a Reply

Your email address will not be published. Required fields are marked *

Check Also

Narcos Mexico Season 1 – Complete

Narcos Mexico Season 1 Free Download With English Subtitles In 720p WEBRip HD Quality Enco…