Kaashi in Search of Ganga Full Movie Download In 720p HQ Pre-DVD Quality Encoded In x264 MKV.

Kaashi in Search of Ganga Full Movie Download In Hindi 720p PreDVD

Details Of Full Length Free Videos

Title: Kaashi in Search of Ganga 2018
Genres: Thriller
Country: India
Language: Hindi
Release Date: 26 October 2018
Quality: 720p HQ PreDVD x264
Format: MKV
Size: 1-GB

IMDb

Storyline

Kaashi in Search of Ganga Full Movie Free Download The movie is about two siblings, Kaashi (Sharman Joshi) and his sister Ganga. When Ganga goes missing, Kaashi starts the search to find her, but the main challenge begins when people refuse to even believe that Ganga exists. Aishwarya Devan plays a journalist who helps in the search for Ganga.

The film is set in the Indian city of Benaras, also known as Kashi. Kaashi is a man who belongs to a community who are involved in performing cremation rituals.

Free Download Full Movie Kaashi in Search of Ganga is a 2018 Bollywood suspense thriller film directed by Dhiraj Kumar starring Sharman Joshi and Aishwarya Devan in lead roles. The film is a Bollywood debut for Aishwarya Devan. In supporting roles the film also stars Govind Namdev, Akhilendra Mishra, Paritosh Tripathi, Manoj Joshi and Manoj Pahwa. The film is directed by Dhiraj Kumar and written by Manish Kishore. The film has been produced by Insite India.

Cast Of Kaashi in Search of Ganga 2018 Movie:

  • Sharman Joshi as Kaashi Chaudhary
  • Aishwarya Devan as Devina
  • Govind Namdev as Balwant Pandey
  • Paritosh Tripathi as Rangeela
  • Kranti Prakash Jha as Babina
  • Mohan Joshi as Kaashi’s Lawyer
  • Akhilendra Mishra as Balwant’s Lawyer
  • Manoj Pahwa as a judge
  • Gauri Shankar as Inspector Ghanshyam Yadav
  • Joginder Tiwari as Chunnu
  • Mugdha Meharia as Shruti
  • Priyanka Singh as Ganga
  • Shahnawaz Khan as Murari
  • Mehul Surana as Abhimanyu Pandey

MKV File Details

MKV File Details

General
Unique ID : 71816611698207101142455735357282277446 (0x3607605506C5E20CF79E7D38BFFD5846)
Complete name : Kaashi in Search of Ganga Movie Download (2018) Hindi 720p HQ PreDVD x264 AAC 1GB – MovCr Exclusive\www.MovCr.cc – Kaashi in Search of Ganga (2018) Hindi 720p HQ PreDVD x264 AAC 1GB – MovCr.mkv
Format : Matroska
Format version : Version 4 / Version 2
File size : 994 MiB
Duration : 1 h 59 min
Overall bit rate : 1 161 kb/s
Encoded date : UTC 2018-11-02 13:05:13
Writing application : mkvmerge v26.0.0 (‘In The Game’) 64-bit
Writing library : libebml v1.3.6 + libmatroska v1.4.9

Video
ID : 1
Format : AVC
Format/Info : Advanced Video Codec
Format profile : [email protected]
Format settings : 2 Ref Frames
Format settings, CABAC : No
Format settings, RefFrames : 2 frames
Codec ID : V_MPEG4/ISO/AVC
Duration : 1 h 59 min
Bit rate : 964 kb/s
Width : 1 280 pixels
Height : 544 pixels
Display aspect ratio : 2.35:1
Frame rate mode : Variable
Frame rate : 24.736 FPS
Color space : YUV
Chroma subsampling : 4:2:0
Bit depth : 8 bits
Scan type : Progressive
Bits/(Pixel*Frame) : 0.056
Stream size : 825 MiB (83%)
Default : Yes
Forced : No

Audio
ID : 2 Kaashi in Search of Ganga 2018 Movie Download
Format : AAC
Format/Info : Advanced Audio Codec
Format profile : LC
Codec ID : A_AAC-2
Duration : 1 h 59 min
Bit rate : 192 kb/s
Channel(s) : 2 channels
Channel positions : Front: L R
Sampling rate : 48.0 kHz
Frame rate : 46.875 FPS (1024 SPF)
Compression mode : Lossy
Stream size : 167 MiB (17%)
Language : Hindi
Default : Yes
Forced : No

Images, Screenshots Of Full Episodes

Some Images Of Kaashi in Search of Ganga 2018 Full Movie 720p PreDVD

Kaashi in Search of Ganga Full Movie Download In Hindi 720p PreDVD

Kaashi in Search of Ganga Full Movie Download In Hindi 720p PreDVD

Kaashi in Search of Ganga Full Movie Download In Hindi 720p PreDVD

Kaashi in Search of Ganga Full Movie Download In Hindi 720p PreDVD

Kaashi in Search of Ganga Full Movie Download In Hindi 720p PreDVD

Kaashi in Search of Ganga Full Movie Download In Hindi 720p PreDVD

Kaashi in Search of Ganga Full Movie Download In Hindi 720p PreDVD

Kaashi in Search of Ganga Full Movie Download In Hindi 720p PreDVD

Kaashi in Search of Ganga Full Movie Download In Hindi 720p PreDVD

Watch The Full HD 720p, 1080p Movie Trailers

Watch Kaashi in Search of Ganga Full Movie 2018 Trailer

Direct Download Links Of Kaashi in Search of Ganga Full Movie In 720p HQ PreDVD Given Below

Free Download Direct Links HD

Direct Links For Premium Users

If you are the member of this site then enter your login details and Enjoy Direct Links

One Comment

  1. Ali

    November 13, 2018 at 12:37 am

    Bro can u upload tumbbad

    Reply

Leave a Reply

Your email address will not be published. Required fields are marked *

Check Also

Narcos Mexico Season 1 – Complete

Narcos Mexico Season 1 Free Download With English Subtitles In 720p WEBRip HD Quality Enco…