Jurassic World Fallen Kingdom In Hindi + English Dual Audio BluRay 720p HD Quality Encoded In x264 With English Subtitles.

Jurassic World Fallen Kingdom In Hindi + English BluRay 720p HD Dubbed Full Movie Download

Details Of Full Length Free Videos

Title: Jurassic World Fallen Kingdom 720p BluRay
Genres: Action | Adventure | Sci-Fi
Country: USA
Language: Hindi + English
Release Date: 22 June 2018
Quality: 720p HC HDRip x264
Format: MKV
Size: 1.21-GB

IMDb

Storyline

Jurassic World Fallen Kingdom IN Hindi BluRay 720p DownloadThree years after the Jurassic World theme park was closed down, Owen and Claire return to Isla Nublar to save the dinosaurs when they learn that a once dormant volcano on the island is active and is threatening to extinguish all life there. Along the way, Owen sets out to find Blue, his lead raptor, and discovers a conspiracy that could disrupt the natural order of the entire planet. Life has found a way, again Jurassic World Fallen Kingdom Full Movie Download In Hindi 720p BluRay.

Jurassic World: Fallen Kingdom is a 2018 American science fiction adventure film and the sequel to Jurassic World (2015). Directed by J. A. Bayona, it is the fifth installment of the Jurassic Park film series, as well as the second installment of a planned Jurassic World trilogy. Derek Connolly and Jurassic World director Colin Trevorrow both returned as writers, with Trevorrow and the original Jurassic Park director Steven Spielberg as executive producers.

Main Cast:

  • Chris Pratt
  • Bryce Dallas Howard
  • Rafe Spall
  • Justice Smith
  • Daniella Pineda
  • James Cromwell
  • Toby Jones
  • Ted Levine
  • Jeff Goldblum
  • BD Wong
  • Geraldine Chaplin
  • Isabella Sermon
  • Robert Emms
  • Peter Jason
  • Kevin Layne

Video File Details

Video File Details

General
Format : Matroska
Format version : Version 4
File size : 1.23 GiB
Duration : 2 h 8 min
Overall bit rate : 1 374 kb/s

Video
ID : 1
Format : AVC
Format/Info : Advanced Video Codec
Format profile : [email protected]
Format settings : CABAC / 5 Ref Frames
Format settings, CABAC : Yes
Format settings, RefFrames : 5 frames
Codec ID : V_MPEG4/ISO/AVC
Duration : 2 h 8 min
Bit rate : 1 119 kb/s
Width : 1 280 pixels
Height : 536 pixels
Display aspect ratio : 2.40:1
Frame rate mode : Constant
Frame rate : 23.976 (24000/1001) FPS
Color space : YUV
Chroma subsampling : 4:2:0
Bit depth : 8 bits
Scan type : Progressive
Bits/(Pixel*Frame) : 0.068
Stream size : 1.00 GiB (81%)

Audio
Format : DTS XBR
Format/Info : Digital Theater Systems
Commercial name : DTS-HD High Resolution Audio
Duration : 2 h 8 min
Bit rate mode : Constant
Bit rate : 2 046 kb/s
Channel(s) : 8 channels
Channel layout : C L R LFE Lb Rb Lss Rss
Sampling rate : 48.0 kHz
Frame rate : 93.750 FPS (512 SPF)
Bit depth : 24 bits
Compression mode : Lossy
Stream size : 1.83 GiB (100%)

Audio
Format : AAC LC
Format/Info : Advanced Audio Codec Low Complexity
Codec ID : A_AAC-2
Duration : 2 h 8 min
Bit rate : 253 kb/s
Channel(s) : 6 channels
Channel layout : C L R Ls Rs LFE
Sampling rate : 48.0 kHz
Frame rate : 46.875 FPS (1024 SPF)
Compression mode : Lossy
Delay relative to video : 9 ms
Stream size : 232 MiB (18%)
Language : English
Default : Yes
Forced : Yes

Text
Format : UTF-8
Codec ID : S_TEXT/UTF8
Codec ID/Info : UTF-8 Plain Text
Duration : 1 h 55 min
Bit rate : 43 b/s
Count of elements : 1379
Stream size : 37.2 KiB (0%)
Language : English
Default : No
Forced : No

Images, Screenshots Of Full Episodes

Some Images Of Jurassic World Fallen Kingdom Hindi Dubbed 720p BluRay

Jurassic World Fallen Kingdom In Hindi + English BluRay 720p HD Dubbed Full Movie Download

Jurassic World Fallen Kingdom In Hindi + English BluRay 720p HD Dubbed Full Movie Download

Jurassic World Fallen Kingdom In Hindi + English BluRay 720p HD Dubbed Full Movie Download

Jurassic World Fallen Kingdom In Hindi + English BluRay 720p HD Dubbed Full Movie Download

Jurassic World Fallen Kingdom In Hindi + English BluRay 720p HD Dubbed Full Movie Download

Jurassic World Fallen Kingdom In Hindi + English BluRay 720p HD Dubbed Full Movie Download

Jurassic World Fallen Kingdom In Hindi + English BluRay 720p HD Dubbed Full Movie Download

Jurassic World Fallen Kingdom In Hindi + English BluRay 720p HD Dubbed Full Movie Download

Jurassic World Fallen Kingdom In Hindi + English BluRay 720p HD Dubbed Full Movie Download

Jurassic World Fallen Kingdom In Hindi + English BluRay 720p HD Dubbed Full Movie Download

Watch The Full HD 720p, 1080p Movie Trailers

Watch Jurassic World Fallen Kingdom BluRay Full Movie Trailer

Direct Download Links Of Jurassic World Fallen Kingdom BluRay 720p [Hindi 5.1 + English] Given Below

Free Download Direct Links HD

Direct Links For Premium Users

If you are the member of this site then enter your login details and Enjoy Direct Links

Leave a Reply

Your email address will not be published. Required fields are marked *

Check Also

Bucket List (2018) Marathi 720p HDRip x264 AAC – 1.1 GB

Bucket List 2018 Full Marathi Movie Free Download In 720p HDRip QUality Encoded In x264 MK…