Helicopter Eela Full Movie Free Download Direct Links In pDVDRip Quality Encoded In x264 With AAC Audio.

Helicopter Eela 2018 Full Movie Free Download Direct Links PDVDRip x264 AAC

Details Of Full Length Free Videos

Title: Helicopter Eela 2018
Genres: Drama
Country: India
Language: Hindi
Release Date: 12 October 2018
Quality: pDVDRip x264
Format: MKV
Size: 704-MB

IMDb

Storyline

Helicopter Eela Movie Free Download Direct Links  is an aspiring playback singer and single mother. She has given up all her dreams to raise her only son. But now her baby son ‘Vivan’ is all grown up and being a typical young millennial, doesn’t want his mother’s life to revolve around him. But being an over protective mother, Helicopter Eela Full Movie Download has other ideas and joins her son’s college to spend more time with him. Unfortunately her plans backfire and she suffers a backlash from Vivan for invading his privacy. Will Helicopter Eela manage to salvage her relationship with Vivan and find her calling again?

About

Helicopter Eela is a 2018 Indian Hindi-language film directed by Pradeep Sarkar. It features Kajol in the lead role as an aspiring singer and single mother and is written by Mitesh Shah and Anand Gandhi. It is based on the Gujarati play Beta, Kaagdo, written by Anand Gandhi.

Pre-production of the film began in January 2017, and principal photography commenced from 24 January 2018. It was released on 12 October 2018.

Cast Of Helicopter Eela 2018 Film:

  • Kajol as Eela Raiturkar
  • Riddhi Sen as Vivaan
  • Tota Roy Chowdhury as Arun
  • Neha Dhupia as Lisa Marine
  • Shataf Figar as Madhavi Bhogat
  • Atul Kulkarni as Prime Minister
  • Mukesh Rishi as Rajesh Kumar Sharma
  • Imran Khan in cameo appearance as himself
  • Anu Malik in cameo appearance as himself
  • Alisha Chinoy in cameo appearance as herself
  • Ila Arun in cameo appearance as herself
  • Shaan in cameo appearance as himself
  • Amitabh Bachchan in cameo appearance
  • R._J._Alok as Chemistry Professor

Video File Details

Video File Details

General
Unique ID : 67420323698873991633272936572712365566 (0x32B8AE99558DFF390E67C620F35FADFE)
Complete name : www.MovCr.cc – Helicopter Eela (2018) Hindi pDVDRip x264 AAC 700MB [Movcr].mkv
Format : Matroska
Format version : Version 4 / Version 2
File size : 705 MiB
Duration : 2 h 3 min
Overall bit rate mode : Variable
Overall bit rate : 795 kb/s
Encoded date : UTC 2018-10-12 20:09:33
Writing application : mkvmerge v26.0.0 (‘In The Game’) 64-bit
Writing library : libebml v1.3.6 + libmatroska v1.4.9

Video
ID : 1
Format : AVC
Format/Info : Advanced Video Codec
Format profile : [email protected]
Format settings : CABAC / 4 Ref Frames
Format settings, CABAC : Yes
Format settings, RefFrames : 4 frames
Codec ID : V_MPEG4/ISO/AVC
Duration : 2 h 2 min
Bit rate : 702 kb/s
Width : 720 pixels
Height : 288 pixels
Display aspect ratio : 2.500
Frame rate mode : Constant
Frame rate : 25.000 FPS
Color space : YUV
Chroma subsampling : 4:2:0
Bit depth : 8 bits
Scan type : Progressive
Bits/(Pixel*Frame) : 0.135
Stream size : 616 MiB (87%)
Writing library : x264 core 155 r2901 7d0ff22
Encoding settings : cabac=1 / ref=3 / deblock=1:0:0 / analyse=0x3:0x113 / me=hex / subme=7 / psy=1 / psy_rd=1.00:0.00 / mixed_ref=1 / me_range=16 / chroma_me=1 / trellis=1 / 8x8dct=1 / cqm=0 / deadzone=21,11 / fast_pskip=1 / chroma_qp_offset=-2 / threads=9 / lookahead_threads=1 / sliced_threads=0 / nr=0 / decimate=1 / interlaced=0 / bluray_compat=0 / constrained_intra=0 / bframes=3 / b_pyramid=2 / b_adapt=1 / b_bias=0 / direct=1 / weightb=1 / open_gop=0 / weightp=2 / keyint=250 / keyint_min=25 / scenecut=40 / intra_refresh=0 / rc_lookahead=40 / rc=2pass / mbtree=1 / bitrate=702 / ratetol=1.0 / qcomp=0.60 / qpmin=0 / qpmax=69 / qpstep=4 / cplxblur=20.0 / qblur=0.5 / ip_ratio=1.40 / aq=1:1.00
Language : Hindi
Default : Yes
Forced : No

Audio
ID : 2
Format : MPEG Audio
Format version : Version 1
Format profile : Layer 3
Format settings : Joint stereo / MS Stereo
Codec ID : A_MPEG/L3
Codec ID/Hint : MP3
Duration : 2 h 3 min
Bit rate mode : Variable
Bit rate : 96.0 kb/s
Channel(s) : 2 channels
Sampling rate : 48.0 kHz
Frame rate : 41.667 FPS (1152 SPF)
Compression mode : Lossy
Stream size : 87.1 MiB (12%)
Writing library : LAME3.99r
Encoding settings : -m j -V 4 -q 3 -lowpass 15.1 –abr 96
Language : Hindi
Default : Yes
Forced : No

Images, Screenshots Of Full Episodes

Some Images Of Helicopter Eela 2018 pDVDRip x264 Full Movie

Helicopter Eela 2018 Full Movie Free Download Direct Links PDVDRip x264 AAC

Helicopter Eela 2018 Full Movie Free Download Direct Links PDVDRip x264 AAC

Helicopter Eela 2018 Full Movie Free Download Direct Links PDVDRip x264 AAC

Helicopter Eela 2018 Full Movie Free Download Direct Links PDVDRip x264 AAC

Helicopter Eela 2018 Full Movie Free Download Direct Links PDVDRip x264 AAC

Helicopter Eela 2018 Full Movie Free Download Direct Links PDVDRip x264 AAC

Watch The Full HD 720p, 1080p Movie Trailers

Watch Helicopter Eela Official Movie Trailer

Direct Download Links Of Helicopter Eela 2018 Full Movie In pDVDRip x264 Given Below

Free Download Direct Links HD

Direct Links For Premium Users

If you are the member of this site then enter your login details and Enjoy Direct Links

Leave a Reply

Your email address will not be published. Required fields are marked *

Check Also

Bucket List (2018) Marathi 720p HDRip x264 AAC – 1.1 GB

Bucket List 2018 Full Marathi Movie Free Download In 720p HDRip QUality Encoded In x264 MK…