GujjuBhai Most Wanted 2018 Full Gujarati Movie Free Download In 720p HDRip Quality Encoded In x264 MKV.

GujjuBhai Most Wanted 2018 Gujarati Movie Free Download 720p

Details Of Full Length Free Videos

Title: GujjuBhai: Most Wanted 2018
Genres: Comedy
Country: India
Language: Gujarati
Release Date: 23 February 2018
Quality: 720p HDRip x264
Format: MKV
Size: 894-MB

IMDb

Storyline

Free Download Gujjubhai and his son Khagesh try a shortcut to earn money which gets them into trouble with terrorists and cops.

GujjuBhai – Most Wanted is a 2018 Indian Gujarati comedy film directed by Ishaan Randeria. This is the second film in Gujjubhai film series and sequel to Gujjubhai the Great (2015). It stars Siddharth Randeria and Jimit Trivedi in the lead roles. The film opened on 23 February 2018 to the mixed reviews.

GujjuBhai Most Wanted 2018 Cast

  • Siddharth Randeria as Arvind Divetia
  • Jimit Trivedi as Khagesh Divetia (KD)
  • Jayesh More as Agent Vikrant Waghmare
  • Tejal Vyas as Indu (Wife of Arvind)
  • Purvi Vyas as Chandrika (Mother-in-law of Arvind)
  • Vyoma Nandi as Priya Rajguru
  • Sunil Vishrani as Nagda
  • RagiJani as police inspector Zoravarsinh Jadeja
  • Anil Mange as Terrorist Faruqq
  • Alok Gagdekar
  • Shafique Ansari
  • Firoz Irani (Special Guest Appearance)

Video File Details

Video File Details

INFO

General
Format : Matroska
Format version : Version 4 / Version 2
File size : 852 MiB
Duration : 2 h 21 min
Overall bit rate : 841 kb/s

Video
ID : 1
Format : AVC
Format/Info : Advanced Video Codec
Format profile : [email protected]
Format settings : CABAC / 3 Ref Frames
Format settings, CABAC : Yes
Format settings, ReFrames : 3 frames
Codec ID : V_MPEG4/ISO/AVC
Duration : 2 h 21 min
Bit rate : 713 kb/s
Width : 1 280 pixels
Height : 538 pixels
Display aspect ratio : 2.40:1
Frame rate mode : Constant
Frame rate : 25.000 FPS
Color space : YUV
Chroma subsampling : 4:2:0
Bit depth : 8 bits
Scan type : Progressive
Bits/(Pixel*Frame) : 0.041
Stream size : 722 MiB (85%)
Default : Yes
Forced : No
Color range : Limited
Color primaries : BT.709
Transfer characteristics : BT.709
Matrix coefficients : BT.709

Audio
ID : 2
Format : AAC
Format/Info : Advanced Audio Codec
Format profile : LC
Codec ID : A_AAC-2
Duration : 2 h 21 min
Bit rate : 126 kb/s
Channel(s) : 2 channels
Channel positions : Front: L R
Sampling rate : 44.1 kHz
Frame rate : 43.066 FPS (1024 SPF)
Compression mode : Lossy
Stream size : 127 MiB (15%)
Default : Yes
Forced : No

Images, Screenshots Of Full Episodes

Some Images Of GujjuBhai Most Wanted 2018 Movie 720p HD

GujjuBhai Most Wanted 2018 Gujarati Movie Free Download 720p

GujjuBhai Most Wanted 2018 Gujarati Movie Free Download 720p

GujjuBhai Most Wanted 2018 Gujarati Movie Free Download 720p

GujjuBhai Most Wanted 2018 Gujarati Movie Free Download 720p

GujjuBhai Most Wanted 2018 Gujarati Movie Free Download 720p

GujjuBhai Most Wanted 2018 Gujarati Movie Free Download 720p

GujjuBhai Most Wanted 2018 Gujarati Movie Free Download 720p

GujjuBhai Most Wanted 2018 Gujarati Movie Free Download 720p

GujjuBhai Most Wanted 2018 Gujarati Movie Free Download 720p

GujjuBhai Most Wanted 2018 Gujarati Movie Free Download 720p

GujjuBhai Most Wanted 2018 Gujarati Movie Free Download 720p

Watch The Full HD 720p, 1080p Movie Trailers

Watch GujjuBhai Most Wanted 2018 Full Movie Trailer

Direct Download Links Of GujjuBhai Most Wanted 2018 Gujarati Movie 720p HD Given Below

Free Download Direct Links HD

Direct Links For Premium Users

If you are the member of this site then enter your login details and Enjoy Direct Links

Leave a Reply

Your email address will not be published. Required fields are marked *

Check Also

Bucket List (2018) Marathi 720p HDRip x264 AAC – 1.1 GB

Bucket List 2018 Full Marathi Movie Free Download In 720p HDRip QUality Encoded In x264 MK…