Goosebumps 2 Haunted Halloween Full Movie Free Download In Hindi + English Dual Audio 720p WEB-DL HD Quality Encoded In x264 With English Subtitles.

Goosebumps 2 Full Movie In Hindi Free Download Dual Audio Dubbed 720p HD, English Subtitles

Details Of Full Length Free Videos

Title: Goosebumps 2 Haunted Halloween
Genres: Adventure | Comedy | Family | Fantasy | Horror
Country: USA
Language: Hindi | English
Release Date: 12 October 2018 (USA)
Quality: 720p WEB-Dl x264
Subtitles: English
Format: MKV
Size: 1.1-GB

IMDb

Storyline

Goosebumps 2 Full Movie In Hindi Free Download 720p HD, English Subtitles For WEB-DL Included Two young friends find a magic book that brings a ventriloquist’s dummy to life.

Goosebumps 2: Haunted Halloween Full Movie In Hindi + English + ESUBS is a 2018 American horror comedy film directed by Ari Sandel and written by Rob Lieber, from a story by Lieber and Darren Lemke. A sequel to 2015’s Goosebumps 2 English Subtitles Download, it is based on the children’s horror book series of the same name by R. L. Stine and stars Wendi McLendon-Covey, Madison Iseman, Jeremy Ray Taylor, Caleel Harris, Chris Parnell and Ken Jeong, with Jack Black reprising his role from the first film. Goosebumps 2 In Hindi Free Download Full Movie The plot follows two young boys accidentally releasing Slappy the Dummy and the Goosebumps monsters in their town, causing a wave of destruction on Halloween night.

Unlike the previous installment, Village Roadshow Pictures is not involved with this film. It was released in the United States on October 12, 2018 by Sony Pictures Releasing under its Columbia Pictures label. The film received mixed reviews from critics and has grossed $40 million worldwide.

Cast Of Goosebumps 2 Haunted Halloween 2018 Dual Audio:

  • Jeremy Ray Taylor as Sonny Quinn
  • Madison Iseman as Sarah Quinn, Sonny’s sister.
  • Caleel Harris as Sam Carter, Sonny’s best friend.
  • Wendi McLendon-Covey as Kathy Quinn, Sonny and Sarah’s mother.
  • Chris Parnell as Walter, the manager of the local Goosebumps 2 720p Dual Audio pharmacy that has a crush on Kathy and is turned into a hunchbacked ogre by an animated ogre mask.
  • Ken Jeong as Mr. Chu, the Quinns’ neighbor.
  • Bryce Cass as Tyler, Sarah’s boyfriend.
  • Peyton Wich as Tommy Madigan, a bully who picks on Sonny and Sam.
  • Kendrick Cross as Mr. Carter, Sam’s father.
  • Shari Headley as Mrs. Carter, Sam’s mother.
  • Courtney Lauren Cummings as Jess, a girl who Tyler cheats Sarah for.
  • Jessi Goei as Maya
  • Jack Black as R.L. Stine, the writer of the Goosebumps books. Black also voiced Brent Green (the invisible boy from My Best Friend is Invisible) in the first film.
  • The real R.L Stine appears as Principal Harrison, the principal of the school that Sonny and Sam attend.
  • Mick Wingert as the voice of Goosebumps 2 Haunted Halloween Movie Download Slappy, a living ventriloquist dummy from the Night of the Living Dummy books. Jack Black previously voiced Slappy in the first film.
  • Avery Lee Jones provides the puppeteer work for Slappy.
  • Katharine C. Lumpkin as Monster Bride
  • Kent Wagner as Undead Pirate
  • Marsha Shackelford as Female Cyborg
  • Barry W. Jerald Jr. as Alien
  • Sherri Millican as Banshee
  • Scott Millican as Red-Haired Ghoul
  • Joseph N. Hardin as Vampire
  • Alex T. Hill as Scarecrow
  • Benjamin Bladon as Royal Mummy

Goosebumps 2: Haunted Halloween MKV File Details

Goosebumps 2: Haunted Halloween MKV File Details

General
Format : Matroska
Format version : Version 4 / Version 2
File size : 1.08 GiB
Duration : 1 h 29 min
Overall bit rate : 1 725 kb/s

Video
ID : 1
Format : AVC
Format/Info : Advanced Video Codec
Format profile : [email protected]
Format settings : CABAC / 4 Ref Frames
Format settings, CABAC : Yes
Format settings, RefFrames : 4 frames
Codec ID : V_MPEG4/ISO/AVC
Duration : 1 h 29 min
Bit rate : 1 500 kb/s
Width : 1 280 pixels
Height : 532 pixels
Display aspect ratio : 2.40:1
Frame rate mode : Constant
Frame rate : 23.976 (24000/1001) FPS
Color space : YUV
Chroma subsampling : 4:2:0
Bit depth : 8 bits
Scan type : Progressive
Bits/(Pixel*Frame) : 0.092
Stream size : 941 MiB (85%)
Writing library : x264 core 155 r2901 7d0ff22
Default : Yes
Forced : No

Audio #1
ID : 2
Format : AAC
Format/Info : Advanced Audio Codec
Format profile : LC
Codec ID : A_AAC-2
Duration : 1 h 29 min
Bit rate : 128 kb/s
Channel(s) : 2 channels
Channel positions : Front: L R
Sampling rate : 48.0 kHz
Frame rate : 46.875 FPS (1024 SPF)
Compression mode : Lossy
Stream size : 82.2 MiB (7%)
Language : Hindi
Default : Yes
Forced : No

Audio #2
ID : 3
Format : AAC
Format/Info : Advanced Audio Codec
Format profile : LC
Codec ID : A_AAC-2
Duration : 1 h 29 min
Bit rate : 128 kb/s
Channel(s) : 2 channels
Channel positions : Front: L R
Sampling rate : 48.0 kHz
Frame rate : 46.875 FPS (1024 SPF)
Compression mode : Lossy
Stream size : 82.4 MiB (7%)
Language : English
Default : No
Forced : No

Text
ID : 4
Format : UTF-8
Codec ID : S_TEXT/UTF8
Codec ID/Info : UTF-8 Plain Text
Duration : 1 h 27 min
Bit rate : 58 b/s
Count of elements : 1277
Stream size : 37.3 KiB (0%)
Default : Yes
Forced : No

Images, Screenshots Of Full Episodes

Some Images Of Goosebumps 2 Dual Audio Hindi + English 720p WEB-DL HD x264 + ESubs

Goosebumps 2 Full Movie In Hindi Free Download Dual Audio Dubbed 720p HD, English Subtitles

Goosebumps 2 Full Movie In Hindi Free Download Dual Audio Dubbed 720p HD, English Subtitles

Goosebumps 2 Full Movie In Hindi Free Download Dual Audio Dubbed 720p HD, English Subtitles

Goosebumps 2 Full Movie In Hindi Free Download Dual Audio Dubbed 720p HD, English Subtitles

Goosebumps 2 Full Movie In Hindi Free Download Dual Audio Dubbed 720p HD, English Subtitles

Goosebumps 2 Full Movie In Hindi Free Download Dual Audio Dubbed 720p HD, English Subtitles

Goosebumps 2 Full Movie In Hindi Free Download Dual Audio Dubbed 720p HD, English Subtitles

Watch The Full HD 720p, 1080p Movie Trailers

Watch Goosebumps 2: Haunted Halloween 2018 HD Movie Trailer

Direct Download Links Of Goosebumps 2 Full Movie In Hindi + English 720p HD With English Subtitles Given Below

Free Download Direct Links HD

Direct Links For Premium Users

If you are the member of this site then enter your login details and Enjoy Direct Links

Leave a Reply

Your email address will not be published. Required fields are marked *

Check Also

Bucket List (2018) Marathi 720p HDRip x264 AAC – 1.1 GB

Bucket List 2018 Full Marathi Movie Free Download In 720p HDRip QUality Encoded In x264 MK…