Baarish Aur Chowmein 2018 Movie Free Download In 720p HD and 1080p Full HD With English Subtitles, x264 Encoded.

Baarish Aur Chowmein 2018 Movie Free Download 720p, 1080p With English Subtitles By ZEE5

Details Of Full Length Free Videos

Title: Baarish Aur Chowmein ZEE5 Movie
Genre: Drama | Romantic
Release Date: 31 August 2018
Language: Hindi
Quality: 720p | 1080p
Format: MKV
Subtitle: English
Size: 440-MB | 1.05-GB

ZEE5

Baarish Aur Chowmein 720p Download ZEE5 Film Festival proudly presents ‘Baarish Aur Chowmein’, a Hindi feature film starring Amit Sadh and Taapsee Pannu, directed by ace filmmaker, Tigmanshu Dhulia. The story revolves around Siraj who is unable to rent a house in Mumbai as not many are willing to accommodate a Muslim. So, he hides his true identity and finds a home, where he falls in love with the landlord’s daughter, Neelu. Will Siraj be honest and disclose his secret to Neelu? Baarish Aur Chowmein Download In 1080p HD.

720p Video File Details

720p Video File Details

General
Unique ID : 77654846200051878813695491890609231031 (0x3A6BC7844A6E110BBD33C1C4804194B7)
Complete name : D:\www.MovCr.com – Baarish Aur Chowmein (2018) Hindi HDRip – 720p – x264 – AAC – 450MB – HC-ESub [MovCr].mkv
Format : Matroska
Format version : Version 4 / Version 2
File size : 440 MiB
Duration : 48 min 34 s
Overall bit rate : 1 267 kb/s
Movie name : www.MovCr.com
Encoded date : UTC 2018-08-31 12:18:43
Writing application : mkvmerge v26.0.0 (‘In The Game’) 64-bit
Writing library : libebml v1.3.6 + libmatroska v1.4.9

Video
ID : 1
Format : AVC
Format/Info : Advanced Video Codec
Format profile : [email protected]
Format settings : CABAC / 4 Ref Frames
Format settings, CABAC : Yes
Format settings, RefFrames : 4 frames
Codec ID : V_MPEG4/ISO/AVC
Duration : 48 min 34 s
Bit rate : 1 185 kb/s
Width : 1 274 pixels
Height : 720 pixels
Display aspect ratio : 16:9
Frame rate mode : Constant
Frame rate : 25.000 FPS
Color space : YUV
Chroma subsampling : 4:2:0
Bit depth : 8 bits
Scan type : Progressive
Bits/(Pixel*Frame) : 0.052
Stream size : 417 MiB (95%)
Title : www.MovCr.com
Writing library : x264 core 148 r2643 5c65704
Encoding settings : cabac=1 / ref=1 / deblock=1:0:0 / analyse=0x3:0x3 / me=dia / subme=1 / psy=1 / psy_rd=1.00:0.00 / mixed_ref=0 / me_range=16 / chroma_me=1 / trellis=0 / 8x8dct=1 / cqm=0 / deadzone=21,11 / fast_pskip=1 / chroma_qp_offset=0 / threads=12 / lookahead_threads=2 / sliced_threads=0 / nr=0 / decimate=1 / interlaced=0 / bluray_compat=0 / constrained_intra=0 / bframes=3 / b_pyramid=2 / b_adapt=1 / b_bias=0 / direct=1 / weightb=1 / open_gop=0 / weightp=1 / keyint=250 / keyint_min=25 / scenecut=40 / intra_refresh=0 / rc=abr / mbtree=0 / bitrate=1185 / ratetol=1.0 / qcomp=0.60 / qpmin=0 / qpmax=69 / qpstep=4 / ip_ratio=1.40 / pb_ratio=1.30 / aq=1:1.00
Language : Hindi
Default : Yes
Forced : No

Audio
ID : 2
Format : AAC
Format/Info : Advanced Audio Codec
Format profile : LC
Codec ID : A_AAC-2
Duration : 48 min 34 s
Bit rate : 64.0 kb/s
Channel(s) : 1 channel
Channel positions : Front: C
Sampling rate : 44.1 kHz
Frame rate : 43.066 FPS (1024 SPF)
Compression mode : Lossy
Delay relative to video : -46 ms
Stream size : 22.2 MiB (5%)
Title : www.MovCr.com
Language : Hindi
Default : Yes
Forced : No

1080p Video Files Details

1080p Video Files Details

General
Unique ID : 22388666751643611453542019473162571602 (0x10D7E67EB9EE2AB65D58347AD6070F52)
Complete name : www.MovCr.com – Baarish Aur Chowmein (2018) Hindi WEB-HD – 1080p – UNTOUCHED x264 AAC HC-ESubs 1GB [MovCr].mkv
Format : Matroska
Format version : Version 4 / Version 2
File size : 1.05 GiB
Duration : 48 min 34 s
Overall bit rate : 3 110 kb/s
Movie name : www.MovCr.com
Encoded date : UTC 2018-08-31 12:15:56
Writing application : mkvmerge v26.0.0 (‘In The Game’) 64-bit
Writing library : libebml v1.3.6 + libmatroska v1.4.9

Video
ID : 1
Format : AVC
Format/Info : Advanced Video Codec
Format profile : [email protected]
Format settings : CABAC / 4 Ref Frames
Format settings, CABAC : Yes
Format settings, RefFrames : 4 frames
Codec ID : V_MPEG4/ISO/AVC
Duration : 48 min 34 s
Bit rate : 3 000 kb/s
Width : 1 920 pixels
Height : 1 080 pixels
Display aspect ratio : 16:9
Frame rate mode : Constant
Frame rate : 24.000 FPS
Color space : YUV
Chroma subsampling : 4:2:0
Bit depth : 8 bits
Scan type : Progressive
Bits/(Pixel*Frame) : 0.060
Stream size : 1.03 GiB (98%)
Title : www.MovCr.com
Writing library : x264 core 152 r2854 e9a5903
Encoding settings : cabac=1 / ref=3 / deblock=1:0:0 / analyse=0x3:0x113 / me=hex / subme=7 / psy=1 / psy_rd=1.00:0.00 / mixed_ref=1 / me_range=16 / chroma_me=1 / trellis=1 / 8x8dct=1 / cqm=0 / deadzone=21,11 / fast_pskip=1 / chroma_qp_offset=-2 / threads=34 / lookahead_threads=5 / sliced_threads=0 / nr=0 / decimate=1 / interlaced=0 / bluray_compat=0 / constrained_intra=0 / bframes=3 / b_pyramid=2 / b_adapt=1 / b_bias=0 / direct=1 / weightb=1 / open_gop=0 / weightp=2 / keyint=48 / keyint_min=25 / scenecut=0 / intra_refresh=0 / rc_lookahead=40 / rc=abr / mbtree=1 / bitrate=3000 / ratetol=1.0 / qcomp=0.60 / qpmin=0 / qpmax=69 / qpstep=4 / ip_ratio=1.40 / aq=1:1.00
Default : Yes
Forced : No

Audio
ID : 2
Format : AAC
Format/Info : Advanced Audio Codec
Format profile : LC
Codec ID : A_AAC-2
Duration : 48 min 34 s
Bit rate : 64.2 kb/s
Channel(s) : 2 channels
Channel positions : Front: L R
Sampling rate : 48.0 kHz
Frame rate : 46.875 FPS (1024 SPF)
Compression mode : Lossy
Delay relative to video : -83 ms
Stream size : 22.3 MiB (2%)
Default : Yes
Forced : No

Images, Screenshots Of Full Episodes

Some Images Of Baarish Aur Chowmein 720p + 1080p Full Movie

Baarish Aur Chowmein 2018 Movie Free Download 720p, 1080p With English Subtitles By ZEE5

Baarish Aur Chowmein 2018 Movie Free Download 720p, 1080p With English Subtitles By ZEE5

Baarish Aur Chowmein 2018 Movie Free Download 720p, 1080p With English Subtitles By ZEE5

Baarish Aur Chowmein 2018 Movie Free Download 720p, 1080p With English Subtitles By ZEE5

Baarish Aur Chowmein 2018 Movie Free Download 720p, 1080p With English Subtitles By ZEE5

Baarish Aur Chowmein 2018 Movie Free Download 720p, 1080p With English Subtitles By ZEE5

Baarish Aur Chowmein 2018 Movie Free Download 720p, 1080p With English Subtitles By ZEE5

Baarish Aur Chowmein 2018 Movie Free Download 720p, 1080p With English Subtitles By ZEE5

Watch The Full HD 720p, 1080p Movie Trailers

Watch Baarish Aur Chowmein ZEE5 Full Movie Official Trailer

Direct Download Links Of Baarish Aur Chowmein 2018 Movie In 720p + 1080p Given Below

Free Download Direct Links HD

Direct Links For Premium Users

If you are the member of this site then enter your login details and Enjoy Direct Links

Leave a Reply

Your email address will not be published. Required fields are marked *

Check Also

Narcos Mexico Season 1 – Complete

Narcos Mexico Season 1 Free Download With English Subtitles In 720p WEBRip HD Quality Enco…