Avengers Infinity War 1080p + 720p Full HD Quality Hindi Dubbed Full Movie Free Download In Multiple Audios (Hindi + English + Tamil + Telugu).

Avengers Infinity War 1080p + 720p Hindi Dubbed Tamil, Telugu, English Download

Details Of Full Length Free Videos

Title: Avengers Infinity War 2018 HD Movie
Genres: Action | Adventure | Fantasy | Sci-Fi
Country: USA
Language: Hindi | English | Tamil | Telugu
Release Date: 27 April 2018 (USA)
Quality: 720p WEBDL | 1080p HDRip
Format: MKV
Size: 1.3-GB | 2.5-GB

IMDb

Avengers Infinity War Hindi 720p HD Video File Details (Hindi + English)

Avengers Infinity War Hindi 720p HD Video File Details (Hindi + English)

Avengers Infinity War 720p Hindi Dubbed Full Movie Download

Avengers Infinity War 720p Hindi Dubbed Full Movie Download

Avengers Infinity War 720p Hindi Dubbed Full Movie Download

General

Format : Matroska
Format version : Version 4 / Version 2
File size : 1.26 GiB
Duration : 2 h 29 min
Overall bit rate : 1 208 kb/s
Movie name : www.moviezAddiction.website
Encoded date : UTC 2018-07-30 13:51:35
Writing application : mkvmerge v12.0.0 (‘Trust / Lust’) 64bit
Writing library : libebml v1.3.4 + libmatroska v1.4.5

Video
ID : 1
Format : AVC
Format/Info : Advanced Video Codec
Format profile : [email protected]
Format settings : CABAC / 4 Ref Frames
Format settings, CABAC : Yes
Format settings, ReFrames : 4 frames
Format settings, GOP : M=1, N=3
Codec ID : V_MPEG4/ISO/AVC
Duration : 2 h 29 min
Bit rate : 950 kb/s
Width : 1 280 pixels
Height : 536 pixels
Display aspect ratio : 2.40:1
Frame rate mode : Constant
Frame rate : 23.976 FPS
Color space : YUV
Chroma subsampling : 4:2:0
Bit depth : 8 bits
Scan type : Progressive
Bits/(Pixel*Frame) : 0.058
Stream size : 1 017 MiB (79%)
Title : www.moviezAddiction.website
Writing library : x264 core 142 r2479 dd79a61
Default : Yes
Forced : No
Color range : Limited
Color primaries : BT.709
Transfer characteristics : BT.709
Matrix coefficients : BT.709

Audio #1
ID : 2
Format : AAC
Format/Info : Advanced Audio Codec
Format profile : LC
Codec ID : A_AAC-2
Duration : 2 h 29 min
Bit rate : 128 kb/s
Channel(s) : 2 channels
Channel positions : Front: L R
Sampling rate : 48.0 kHz
Frame rate : 46.875 FPS (1024 SPF)
Compression mode : Lossy
Delay relative to video : -21 ms
Stream size : 137 MiB (11%)
Title : www.moviezAddiction.website
Language : English
Default : Yes
Forced : No

Audio #2
ID : 4
Format : AAC
Format/Info : Advanced Audio Codec
Format profile : LC
Codec ID : A_AAC-2
Duration : 2 h 29 min
Bit rate : 128 kb/s
Channel(s) : 2 channels
Channel positions : Front: L R
Sampling rate : 48.0 kHz
Frame rate : 46.875 FPS (1024 SPF)
Compression mode : Lossy
Delay relative to video : -127 ms
Stream size : 137 MiB (11%)
Title : www.moviezAddiction.website
Language : Hindi
Default : No
Forced : Yes

Avengers Infinity War Hindi 1080p HD Video File Details (Hindi + English + Tamil + Telugu)

Avengers Infinity War Hindi 1080p HD Video File Details (Hindi + English + Tamil + Telugu)

Avengers Infinity War 1080p Download Hindi Dubbed Full Movie With English, Tamil, Telugu Audio

Avengers Infinity War 1080p Download Hindi Dubbed Full Movie With English, Tamil, Telugu Audio

Avengers Infinity War 1080p Download Hindi Dubbed Full Movie With English, Tamil, Telugu Audio

Avengers Infinity War 1080p Download Hindi Dubbed Full Movie With English, Tamil, Telugu Audio

Avengers Infinity War 1080p Download Hindi Dubbed Full Movie With English, Tamil, Telugu Audio

General
Unique ID : 33499155491807098285315645640854622902 (0x1933B3E201AA1DDAA2FF4A148C9E52B6)
Complete name : www.MovCr.com – Avengers Infinity War (2018) 1080p – HDRip -HQ Line Auds [Telugu + Tamil + Hindi + Eng] x264 2.5GB [MovCr].mkv
Format : Matroska
Format version : Version 4 / Version 2
File size : 2.54 GiB
Duration : 2 h 29 min
Overall bit rate : 2 433 kb/s
Movie name : www.MovCr.com
Encoded date : UTC 2018-07-30 18:19:22
Writing application : mkvmerge v23.0.0 (‘The Bride Said No’) 64-bit
Writing library : libebml v1.3.6 + libmatroska v1.4.9

Video
ID : 1
Format : AVC
Format/Info : Advanced Video Codec
Format profile : [email protected]
Format settings : CABAC / 4 Ref Frames
Format settings, CABAC : Yes
Format settings, RefFrames : 4 frames
Codec ID : V_MPEG4/ISO/AVC
Duration : 2 h 29 min
Bit rate : 2 047 kb/s
Width : 1 920 pixels
Height : 816 pixels
Display aspect ratio : 2.35:1
Frame rate mode : Constant
Frame rate : 23.976 (24000/1001) FPS
Color space : YUV
Chroma subsampling : 4:2:0
Bit depth : 8 bits
Scan type : Progressive
Bits/(Pixel*Frame) : 0.054
Stream size : 2.14 GiB (84%)
Title : www.MovCr.com
Writing library : x264 core 155 r2901 7d0ff22
Encoding settings : cabac=1 / ref=2 / deblock=1:0:0 / analyse=0x1:0x111 / me=hex / subme=6 / psy=1 / psy_rd=1.00:0.00 / mixed_ref=1 / me_range=16 / chroma_me=1 / trellis=1 / 8x8dct=0 / cqm=0 / deadzone=21,11 / fast_pskip=1 / chroma_qp_offset=-2 / threads=12 / lookahead_threads=2 / sliced_threads=0 / nr=0 / decimate=1 / interlaced=0 / bluray_compat=0 / constrained_intra=0 / bframes=3 / b_pyramid=2 / b_adapt=1 / b_bias=0 / direct=1 / weightb=1 / open_gop=0 / weightp=1 / keyint=240 / keyint_min=24 / scenecut=40 / intra_refresh=0 / rc_lookahead=30 / rc=2pass / mbtree=1 / bitrate=2047 / ratetol=1.0 / qcomp=0.60 / qpmin=0 / qpmax=69 / qpstep=4 / cplxblur=20.0 / qblur=0.5 / vbv_maxrate=20000 / vbv_bufsize=25000 / nal_hrd=none / filler=0 / ip_ratio=1.40 / aq=1:1.00
Default : Yes
Forced : No
Color range : Limited
Color primaries : BT.709
Transfer characteristics : BT.709
Matrix coefficients : BT.709

Audio #1
ID : 2
Format : MPEG Audio
Format version : Version 1
Format profile : Layer 3
Format settings : Joint stereo / MS Stereo
Codec ID : A_MPEG/L3
Codec ID/Hint : MP3
Duration : 2 h 29 min
Bit rate mode : Constant
Bit rate : 128 kb/s
Channel(s) : 2 channels
Sampling rate : 44.1 kHz
Frame rate : 38.281 FPS (1152 SPF)
Compression mode : Lossy
Delay relative to video : -5 ms
Stream size : 137 MiB (5%)
Title : www.MovCr.com
Language : Telugu
Default : No
Forced : Yes

Audio #2
ID : 3
Format : MPEG Audio
Format version : Version 1
Format profile : Layer 3
Format settings : Joint stereo / MS Stereo
Codec ID : A_MPEG/L3
Codec ID/Hint : MP3
Duration : 2 h 29 min
Bit rate mode : Constant
Bit rate : 64.0 kb/s
Channel(s) : 2 channels
Sampling rate : 44.1 kHz
Frame rate : 38.281 FPS (1152 SPF)
Compression mode : Lossy
Delay relative to video : -5 ms
Stream size : 68.5 MiB (3%)
Title : www.MovCr.com
Writing library : LAME3.98.2
Language : Tamil
Default : No
Forced : No

Audio #3
ID : 4
Format : MPEG Audio
Format version : Version 1
Format profile : Layer 3
Format settings : Joint stereo / MS Stereo
Codec ID : A_MPEG/L3
Codec ID/Hint : MP3
Duration : 2 h 29 min
Bit rate mode : Constant
Bit rate : 64.0 kb/s
Channel(s) : 2 channels
Sampling rate : 44.1 kHz
Frame rate : 38.281 FPS (1152 SPF)
Compression mode : Lossy
Delay relative to video : -5 ms
Stream size : 68.5 MiB (3%)
Title : www.MovCr.com
Writing library : LAME3.98.2
Language : Hindi
Default : Yes
Forced : Yes

Audio #4
ID : 5
Format : MPEG Audio
Format version : Version 1
Format profile : Layer 3
Format settings : Joint stereo / MS Stereo
Codec ID : A_MPEG/L3
Codec ID/Hint : MP3
Duration : 2 h 29 min
Bit rate mode : Constant
Bit rate : 128 kb/s
Channel(s) : 2 channels
Sampling rate : 48.0 kHz
Frame rate : 41.667 FPS (1152 SPF)
Compression mode : Lossy
Delay relative to video : -5 ms
Stream size : 137 MiB (5%)
Title : www.MovCr.com
Writing library : LAME3.99r
Encoding settings : -m j -V 4 -q 3 -lowpass 17 -b 128
Language : English
Default : No
Forced : No

 

Watch The Full HD 720p, 1080p Movie Trailers

Watch Avengers Infinity War Full Movie Trailer

Direct Download Links Of Avengers Infinity War 720p + 1080p HD Dubbed Movie Given Below

Free Download Direct Links HD

2 Comments

  1. Jitendra

    July 31, 2018 at 7:13 pm

    I downloaded infinity wars in 1080p hindi +tamil +telegu+English…. But why the hell its only in telegu uuu why why… I want hindi

    Reply

    • admin

      admin

      August 3, 2018 at 5:57 pm

      Press The “B” On your keyboard to change the language because we checked this video file and there is Hindi, English, Tamil and Telugu Audios.

      Reply

Leave a Reply

Your email address will not be published. Required fields are marked *

Check Also

Bucket List (2018) Marathi 720p HDRip x264 AAC – 1.1 GB

Bucket List 2018 Full Marathi Movie Free Download In 720p HDRip QUality Encoded In x264 MK…