Avengers Grimm 2015 Dual Audio Hindi + English Full Movie Free Download In 720p BluRay HD Encoded In x264 With English Subtitles.

Avengers Grimm 2015 Hindi Dubbed Dual Audio Full movie Free Download 720p BluRay

Details Of Full Length Free Videos

Title: Avengers Grimm 2015 In Hindi
Genres: Action | Adventure | Fantasy | Sci-Fi
Country: USA
Language: Hindi | English
Release Date: 10 April 2015
Quality: 720p BluRay x264
Subtitle: English
Format: MKV
Size: 816-MB

IMDb

Storyline

Avengers Grimm 2015 Hindi Dubbed Full Movie Download When Rumpelstiltskin destroys the Magic Mirror and escapes to the modern world, the four princesses of “Once Upon a Time”-Cinderella, Sleeping Beauty, Snow White, and Rapunzel-are sucked through the portal too. Well-trained and endowed with magical powers, the four women must fight Rumpelstiltskin and his army of thralls before he enslaves everyone on Earth. Avengers Grimm Hindi 720p BluRay Download

Avengers Grimm is a 2015 American fantasy action adventure film written, co-edited, and directed by Jeremy M. Inman. The film, produced by B-movie film company The Asylum, stars Casper Van Dien, Lou Ferrigno, Kimo Leopoldo, Lauren Parkinson, Milynn Sarley, Marah Fairclough, Rileah Vanderbilt, and Elizabeth Peterson.

The film is a mockbuster of the Marvel Studios superhero film Avengers: Age of Ultron and the ABC TV series Once Upon a Time.

About

Snow White and Prince Charming’s kingdom is under attack by Rumpelstiltskin’s brainwashed army of thralls. Free Download Avengers Grimm 2015 In Hindi 720 HD After killing the prince, Rumple confronts Snow in the throne room; he wants access to the Magic Mirror, which can act as a portal to a land without magic, where he can reign unchallenged. A fight ensues, resulting in them falling through the mirror’s portal and into the other world. Later, Cinderella, Sleeping Beauty and Rapunzel arrive, noting the time that’s passed since the battle, and how the other world’s time moves much faster than theirs; they are joined by Red Riding Hood, who is tracking down Rumpelstiltskin’s right-hand man, the Wolf. Having survived the battle, the Wolf attacks them; he tackles Red into the mirror, shattering it and embedding a shard into her shoulder. The princesses follow after them. English Subtitles Download.

Cast

  • Casper Van Dien as Rumpelstiltskin
  • Lou Ferrigno as Iron John
  • Kimo Leopoldo as The Wolf
  • Lauren Parkinson as Snow White
  • Milynn Sarley as Cinderella
  • Marah Fairclough as Sleeping Beauty
  • Rileah Vanderbilt as Rapunzel
  • Elizabeth Peterson as Red
  • Justine Herron as Jessica
  • Jonathan Medina as Jack
  • Daniel Nemes as Officer Ernst
  • Henry Brown as Officer LaGuardia

Video File Details

Video File Details

General
Format : Matroska
Format version : Version 4 / Version 2
File size : 816 MiB
Duration : 1 h 25 min
Overall bit rate : 1 331 kb/s

Video
ID : 1
Format : AVC
Format/Info : Advanced Video Codec
Format profile : [email protected]
Format settings : CABAC / 4 Ref Frames
Format settings, CABAC : Yes
Format settings, RefFrames : 4 frames
Codec ID : V_MPEG4/ISO/AVC
Duration : 1 h 25 min
Bit rate : 1 044 kb/s
Width : 1 280 pixels
Height : 720 pixels
Display aspect ratio : 16:9
Frame rate mode : Constant
Frame rate : 23.976 (24000/1001) FPS
Original frame rate : 23.976 (23976/1000) FPS
Color space : YUV
Chroma subsampling : 4:2:0
Bit depth : 8 bits
Scan type : Progressive
Bits/(Pixel*Frame) : 0.047
Stream size : 638 MiB (78%)
Writing library : x264 core 123 r2189 35cf912
Default : Yes
Forced : No

Audio #1
ID : 3
Format : AC-3
Format/Info : Audio Coding 3
Codec ID : A_AC3
Duration : 1 h 25 min
Bit rate mode : Constant
Bit rate : 192 kb/s
Channel(s) : 2 channels
Channel positions : Front: L R
Sampling rate : 48.0 kHz
Frame rate : 31.250 FPS (1536 SPF)
Bit depth : 16 bits
Compression mode : Lossy
Stream size : 118 MiB (14%)
Language : Hindi
Service kind : Complete Main
Default : Yes
Forced : No

Audio #2
ID : 4
Format : AC-3
Format/Info : Audio Coding 3
Codec ID : A_AC3
Duration : 1 h 25 min
Bit rate mode : Constant
Bit rate : 96.0 kb/s
Channel(s) : 2 channels
Channel positions : Front: L R
Sampling rate : 48.0 kHz
Frame rate : 31.250 FPS (1536 SPF)
Bit depth : 16 bits
Compression mode : Lossy
Stream size : 58.8 MiB (7%)
Language : English
Service kind : Complete Main
Default : No
Forced : No

Text
ID : 2
Format : UTF-8
Codec ID : S_TEXT/UTF8
Codec ID/Info : UTF-8 Plain Text
Duration : 1 h 25 min
Bit rate : 115 b/s
Count of elements : 1143
Stream size : 72.0 KiB (0%)
Language : English
Default : Yes
Forced : No

Images, Screenshots Of Full Episodes

Some Images Of Avengers Grimm 2015 Hindi + English 720p BluRay

Avengers Grimm 2015 Hindi Dubbed Dual Audio Full movie Free Download 720p BluRay

Avengers Grimm 2015 Hindi Dubbed Dual Audio Full movie Free Download 720p BluRay

Avengers Grimm 2015 Hindi Dubbed Dual Audio Full movie Free Download 720p BluRay

Avengers Grimm 2015 Hindi Dubbed Dual Audio Full movie Free Download 720p BluRay

Avengers Grimm 2015 Hindi Dubbed Dual Audio Full movie Free Download 720p BluRay

Watch The Full HD 720p, 1080p Movie Trailers

Watch Avengers Grimm 2015 Full Movie Trailer

Direct Download Links Of Avengers Grimm 2015 Dual Audio Hindi + English 720p BluRay Given Below

Free Download Direct Links HD

Leave a Reply

Your email address will not be published. Required fields are marked *

Check Also

Bucket List (2018) Marathi 720p HDRip x264 AAC – 1.1 GB

Bucket List 2018 Full Marathi Movie Free Download In 720p HDRip QUality Encoded In x264 MK…