Ashke Punjabi Movie Download Full In 720p HD Quality Encoded In x264 MKV.

Ashke Punjabi Movie Download 720p HD Free Full

Details Of Full Length Free Videos

Title: Ashke 2018 Punjabi Movie
Genres: Drama | Romance
Country: India
Language: Punjabi
Release Date: 27 July 2018
Quality: 720p-HD x264
Audio: AAC
Format: MKV
Size: 614-MB

IMDb

Storyline

Ashke Full Movie Download 720p HD Pamma is in his late thirties living in Canada with his sister and her family. He is doing petty jobs but doesn’t carry on for very long as he has bad temper and lack of subordination. He is struggling to live and find a direction in his Life in contrast from the Pamma from 15 years back, who was full of life and hope. He was a passionate Bhangra dancer and was the star performer of his college. But things didn’t work out the way he had hoped and after breaking ties with his college team, with the love of his life and his father, his sister gave him a sanctuary in her home as she loves him unconditionally. But now at an unexpected juncture his sister’s kid Ekam finds out about his dance talent and the kids are in dire need of his help. This equation brings him closer to kids and his long-lost passion but also, he comes across his lost love/Jia, in a very vulnerable situation. Ashke Punjabi Movie Download HD Pamma finds the emotions he had covered up deep in his heart for all these years.

About Ashke 2018 Film:

Download Ashke Movie 720p HD is a 2018 Indian-Punjabi film based on popular folk dance Bhangra and is written by Dheeraj Rattan and directed by Amberdeep Singh. It stars Amrinder Gill, Sanjeeda Shaikh, Roopi Gill in lead roles and Sarbjit Cheema, Hobby Dhaliwal, Jaswinder Bhalla and Gurshabad in supporting roles. Also, the film marks as debut for Roopi Gill and Sanjeeda Shaikh in Pollywood. Ashke was released worldwide on 27 July 2018.

Ashke Full Punjabi Movie Main Cast:

  • Amrinder Gill as Pamma
  • Sanjeeda Sheikh as Jiya
  • Jaswinder Bhalla as Pawan Pandori (Bhangra Coach Khalsa College)
  • Sarbjit Cheema as Vikram
  • Hobby Dhaliwal as Dhaliwal Saab (Bhangra Coach SSK College for boys)
  • Gurshabad as Gogaa
  • Roopi Gill as Noor
  • Hardeep Gill as Pamma’s father
  • Avy Randhawa as Preet (Pamma’s sister)
  • Sehaj Sahib as Agam
  • Harjot as Ekam
  • Amberdeep Singh as Noor’s brother (special appearance)
  • Vandana Chopra as Jiya’s mother
  • Jatinder Kaur as Jiya’s grandmother
  • Harish Verma as Jiya’s husband (special appearance)

MKV File Details

MKV File Details

Format : Matroska
Format version : Version 4 / Version 2
File size : 614 MiB
Duration : 2 h 3 min
Overall bit rate : 693 kb/s
Movie name : Ashke 2018 GOPISAHI

Video
Format : AVC
Format/Info : Advanced Video Codec
Codec ID : V_MPEG4/ISO/AVC
Duration : 2 h 3 min
Bit rate : 599 kb/s
Width : 1 280 pixels
Height : 540 pixels
Display aspect ratio : 2.40:1
Frame rate mode : Constant
Frame rate : 24.000 FPS
Color space : YUV
Chroma subsampling : 4:2:0
Bit depth : 8 bits
Scan type : Progressive
Bits/(Pixel*Frame) : 0.036
Stream size : 530 MiB (86%)
Title : GOPISAHI
Writing library : x264 core 155 r2901 7d0ff22

Audio
Format : AAC
Duration : 2 h 3 min
Bit rate : 91.9 kb/s
Channel(s) : 2 channels
Channel positions : Front: L R
Sampling rate : 48.0 kHz
Frame rate : 46.875 FPS (1024 SPF)
Compression mode : Lossy
Delay relative to video : -21 ms
Stream size : 81.4 MiB (13%)
Title : GOPISAHI
Language : Panjabi

Images, Screenshots Of Full Episodes

Some Images Of Ashke Punjabi Movie 720p HD x264

Ashke Punjabi Movie Download 720p HD Free Full

Ashke Punjabi Movie Download 720p HD Free Full

Ashke Punjabi Movie Download 720p HD Free Full

Watch The Full HD 720p, 1080p Movie Trailers

Watch Ashke 2018 Full Punjabi Movie Trailer

Direct Download Links Of Ashke Punjabi Movie In 720p HD Given Below

Free Download Direct Links HD

Direct Links For Premium Users

If you are the member of this site then enter your login details and Enjoy Direct Links

Leave a Reply

Your email address will not be published. Required fields are marked *

Check Also

Bucket List (2018) Marathi 720p HDRip x264 AAC – 1.1 GB

Bucket List 2018 Full Marathi Movie Free Download In 720p HDRip QUality Encoded In x264 MK…