Ant-Man and the Wasp 720p BluRay Quality Full movie Free Download Dual Audio Hindi + English Encoded In x264 With English Subtitles.

Ant-Man and the Wasp 720p BluRay HD Dual Audio Hindi + English Full Movie Free Download

Details Of Full Length Free Videos

Title: Ant-Man and the Wasp Hindi 720p BluRay
Genres: Action | Adventure | Sci-Fi
Country: USA
Language: HindiEnglish
Release Date: 6 July 2018 (USA)
Also Known As: Ant-Man 2
Quality: 720p BluRay x264
Format: MKV
Size: 1.1-GB

IMDb

Storyline

Ant-Man and the Wasp 720p BluRay Hindi Movie Free Download 2018 In the aftermath of Captain America: war (2016), Scott Lang grapples with the results of his selections as each a superhero and a father. As he struggles to rebalance his home life together with his responsibilities as Ant-Man, he is confronted by Hope van force unit and Dr. helix Pym with associate pressing new mission. Scott should yet again placed on the suit and learn to fight aboard The Wasp because the team works along to uncover secrets from their past Ant-Man and the Wasp 2018 Hindi + English Dual Audio 720p Download and Watch.

Main Cast

  • Paul Rudd
  • Evangeline Lilly
  • Michael Peña
  • Walton Goggins
  • Bobby Cannavale
  • Judy Greer
  • T.I.
  • David Dastmalchian
  • Hannah John-Kamen
  • Abby Ryder Fortson
  • Randall Park
  • Michelle Pfeiffer
  • Laurence Fishburne
  • Michael Douglas
  • Divian Ladwa

Video File Details

Video File Details

Format : AVC
Format/Info : Advanced Video Codec
Format profile : [email protected]
Format settings : CABAC / 8 Ref Frames
Format settings, CABAC : Yes
Format settings, RefFrames : 8 frames
Codec ID : V_MPEG4/ISO/AVC
Duration : 1 h 58 min
Bit rate : 1 074 kb/s
Width : 1 280 pixels
Height : 536 pixels
Display aspect ratio : 2.40:1
Frame rate mode : Constant
Frame rate : 23.976 (24000/1001) FPS
Color space : YUV
Chroma subsampling : 4:2:0
Bit depth : 8 bits
Scan type : Progressive
Bits/(Pixel*Frame) : 0.065
Stream size : 907 MiB (77%)
Writing library : x264 core 148 r2638 7599210
Encoding settings : cabac=1 / ref=8 / deblock=1:0:0 / analyse=0x3:0x133 / me=hex / subme=9 / psy=1 / psy_rd=1.00:0.15 / mixed_ref=1 / me_range=16 / chroma_me=1 / trellis=2 / 8x8dct=1 / cqm=0 / deadzone=21,11 / fast_pskip=1 / chroma_qp_offset=-3 / threads=12 / lookahead_threads=1 / sliced_threads=0 / nr=200 / decimate=1 / interlaced=0 / bluray_compat=0 / constrained_intra=0 / bframes=3 / b_pyramid=2 / b_adapt=1 / b_bias=0 / direct=3 / weightb=1 / open_gop=0 / weightp=2 / keyint=240 / keyint_min=23 / scenecut=40 / intra_refresh=0 / rc_lookahead=40 / rc=2pass / mbtree=1 / bitrate=1074 / ratetol=1.0 / qcomp=0.60 / qpmin=0 / qpmax=69 / qpstep=4 / cplxblur=20.0 / qblur=0.5 / vbv_maxrate=62500 / vbv_bufsize=78125 / nal_hrd=none / filler=0 / ip_ratio=1.40 / aq=1:1.00
Default : Yes
Forced : No
Color range : Limited
Color primaries : Generic film
Transfer characteristics : BT.709
Matrix coefficients : BT.709

Audio #1
ID : 2
Format : AAC
Format/Info : Advanced Audio Codec
Format profile : HE-AAC / LC
Format settings : Explicit
Codec ID : A_AAC-2
Duration : 1 h 58 min
Bit rate : 192 kb/s
Channel(s) : 6 channels
Channel positions : Front: L C R, Side: L R, LFE
Sampling rate : 44.1 kHz / 22.05 kHz
Frame rate : 21.533 FPS (1024 SPF)
Compression mode : Lossy
Delay relative to video : 33 ms
Stream size : 162 MiB (14%)
Language : Hindi
Default : No
Forced : Yes

Audio #2
ID : 3
Format : AAC
Format/Info : Advanced Audio Codec
Format profile : HE-AACv2 / HE-AAC / LC
Format settings : NBC / NBC / Explicit
Codec ID : A_AAC-2
Duration : 1 h 58 min
Bit rate : 125 kb/s
Channel(s) : 6 channels
Channel(s)_Original : 2 channels / 18 channels / 18 channels
Channel positions : Front: L R / Front: 6, Side: 10, LFE= 2 / Front: 6, Side: 10, LFE= 2
Sampling rate : 48.0 kHz / 48.0 kHz / 24.0 kHz
Frame rate : 23.438 FPS (1024 SPF)
Compression mode : Lossy
Delay relative to video : 31 ms
Stream size : 105 MiB (9%)
Language : English
Default : No
Forced : No

Text
ID : 4
Format : UTF-8
Codec ID : S_TEXT/UTF8
Codec ID/Info : UTF-8 Plain Text
Duration : 1 h 57 min
Bit rate : 68 b/s
Count of elements : 2136
Stream size : 59.3 KiB (0%)
Default : Yes
Forced : No

Images, Screenshots Of Full Episodes

Some Images Of Ant-Man and the Wasp 2018 Hindi Dubbed 720p BluRay

Ant-Man and the Wasp 720p BluRay HD Dual Audio Hindi + English Full Movie Free Download

Watch The Full HD 720p, 1080p Movie Trailers

Watch Ant-Man and the Wasp 2018 Full Movie Trailer

Direct Download Links Of Ant-Man and the Wasp 2018 Hindi + English Dual Audio 720p BluRay HD Given Below

Free Download Direct Links HD

Direct Links For Premium Users

If you are the member of this site then enter your login details and Enjoy Direct Links

Leave a Reply

Your email address will not be published. Required fields are marked *

Check Also

Bucket List (2018) Marathi 720p HDRip x264 AAC – 1.1 GB

Bucket List 2018 Full Marathi Movie Free Download In 720p HDRip QUality Encoded In x264 MK…